Поиск

1972 CTI All Stars - Live At The Hollywood Bowl (2017) {CTI} [24-192]

1972 CTI All Stars - Live At The Hollywood Bowl (2017) {CTI} [24-192]
Стили:
Дата записи диска:
30 июля 1972
Издатель (лейбл):
Битрейт аудио:
lossless
Треклист:

01 - Grits Bowl 08:10
02 - Inner City Blues / What's Going On 08:42
03 - California Dreaming 08:37
04 - First Light 08:22
05 - Blues Force 07:03
06 - Rock Steady 10:28
07 - Love Story / Pavane / Fire and Rain 13:55
08 - People Make The World Go Round 06:07
09 - Funk Fathers 07:50
10 - Cherry 07:57
11 - Bowl Full o' Blues 07:54
12 - Cherry Red 04:41
13 - God Bless the Child 06:56

Доп. инфо:

Формат записи/Источник записи: [TR24][OF]
Издание: Remastered
Год издания/переиздания диска: 2017
Продолжительность: 01:46:42
Наличие сканов в содержимом раздачи: Нет

Контейнер: FLAC (*.flac)
Тип рипа: tracks
Разрядность: 24/192
Количество каналов: 2.0

Источник (релизер): King Records

Лог проверки качества
foobar2000 1.4.3 / Dynamic Range Meter 1.1.1
log date: 2021-01-06 17:32:01

--------------------------------------------------------------------------------
Analyzed: Hubert Laws, Grover Washington, Jr., Stanley Turrentine, Eumir Deodato, Milt Jackson, Johnny Hammond, Joe Farrell, George Benson, Hank Crawford, Freddie Hubbard, Airto Moreira, Esther Phillips, Ron Carter, Jack DeJohnette, Bob James / CTI Summer Jazz At The Hollywood Bowl, July 30, 1972 (1-2)
          Hubert Laws, Grover Washington, Jr., Stanley Turrentine, Eumir Deodato, Milt Jackson, Johnny Hammond, Joe Farrell, George Benson, Hank Crawford, Freddie Hubbard, Airto Moreira, Ron Carter, Jack DeJohnette, Bob James / CTI Summer Jazz At The Hollywood Bowl, July 30, 1972 (3-13)
--------------------------------------------------------------------------------

DR         Peak         RMS     Duration Track
--------------------------------------------------------------------------------
DR11      -0.10 dB   -13.50 dB      7:55 11-Bowl Full O'Blues
DR10      -0.10 dB   -13.04 dB      4:42 12-Cherry Red
DR9       -0.10 dB   -11.24 dB      8:11 01-Grits Bowl
DR10      -0.10 dB   -11.37 dB      8:42 02-Inner City Blues / What's Going On
DR9       -0.10 dB   -11.38 dB      8:38 03-California Dreaming
DR10      -0.10 dB   -12.43 dB      8:23 04-First Light
DR10      -0.10 dB   -11.58 dB      7:04 05-Blues Force
DR8       -0.10 dB   -10.17 dB     10:29 06-Rock Steady
DR14      -0.10 dB   -18.08 dB     13:55 07-Theme From Love Story / Pavane / Fire And Rain
DR10      -0.10 dB   -12.07 dB      6:08 08-People Make The World Go Round
DR10      -0.10 dB   -12.73 dB      7:51 09-Funkfathers
DR13      -0.10 dB   -17.48 dB      7:57 10-Cherry
DR11      -0.10 dB   -14.25 dB      6:57 13-God Bless The Child
--------------------------------------------------------------------------------

Number of tracks:  13
Official DR value: DR10

Samplerate:        192000 Hz
Channels:          2
Bits per sample:   24
Bitrate:           5020 kbps
Codec:             FLAC
================================================================================
Приватный:
Нет (DHT включён)
Размер:
3.86 Гб (4,149,628,825 байт) » файлов: 18
Участники:
1 раздают, 0 качают (1 участников всего)
Внешние участники:
7 раздают, 2 качают (9 участников всего) [ Обновить ]
No seeders - write personal message to M0p94ok. Нет сидеров - пишите в личку M0p94ok.
00:07
95
Нет комментариев. Ваш будет первым!