Поиск

2016 VA - Venus The Amazing Super Audio CD Sampler Vol.13 {Venus} [DSD64]

2016 VA - Venus The Amazing Super Audio CD Sampler Vol.13 {Venus} [DSD64]
Стили:
Издатель (лейбл):
Номер по каталогу:
VHGD-138
Битрейт аудио:
lossless
Треклист:

01. My Heart Belongs To Daddy - Alexis Cole《 C. Porter 》
02. Black Coffee - Nicki Parrott《 P. F. Webster - S. Burke 》
03. I Wanna Be Loved - Sally Night《 J. Green, B. Rose, E. Heyman 》
04. We Kiss In A Shadow - Simone《 O. Hammerstein - R. Rodgers 》
05. Traveling Light - Laird Jackson《 Mercer, Mundy, Young 》
06. The Day Of Wine And Roses - Adela Dalto《 H. Mancini - J. Mercer 》
07. The Lamp Is Low - Tessa Souter《 M. Ravel, P. De Rose, B. Shefter 》
08. But Beautiful - Barbara Carroll《 J. Burke - J. Van Heusen 》
09. Gentle Rain - Laura Ann《 M. Dubey, L. Bonfa 》
10. Cry Me A River - Nicole Henry《 A. Hamilton 》
11. When Your Lover Has Gone - Champian Fulton《 Einar A. Swan 》
12. Tea For Two - Cyrille Aimée《 I. Caesar - V. Youmans 》
13. I Remember Clifford - Anna Kolchina《 J. Hendricks - B. Golson 》
14. My Foolish Heart - Roseanna Vitro《 N. Washington - V. Young 》
15. I Got Lost In His Arms - Marilyn Scott《 I. Berlin 》
16. You Don't Know What Love Is? - Carla Cook《 D. Rays, G. De Paul 》
17. A String Of Pearls - String Of Pearls《 J. Gray, E. Delange 》

Доп. инфо:

Формат записи/Источник записи: [SACD-R][OF]
Наличие водяных знаков: Нет
Издание: Sampler
Год издания диска: 2016
Продолжительность: 01:28:58
Наличие сканов в содержимом раздачи: Только обложка альбома

Контейнер: ISO (*.iso)
Тип рипа: image
Разрядность: 64(2,8 MHz/1 Bit)
Формат: DSD
Количество каналов: 2.0

Источник (релизер): venusrecords

Лог проверки качества
foobar2000 1.6.3 / Замер динамического диапазона (DR) 1.1.1
Дата отчёта:  2021-01-29 15:02:24

--------------------------------------------------------------------------------
Анализ:   Various Artists / THE VENUS AMAZING SUPER AUDIO CD SAMPLER VOL.13 VENUS GREAT
--------------------------------------------------------------------------------

DR         Пики         RMS           Продолжительность трека
--------------------------------------------------------------------------------
DR9       -4.35 дБ   -15.49 дБ      4:53 01-My Heart Belongs To Daddy
DR7       -6.13 дБ   -13.98 дБ      5:35 02-Black Coffee
DR9       -3.80 дБ   -16.24 дБ      5:51 03-I Wanna Be Loved
DR6       -5.58 дБ   -13.46 дБ      4:08 04-We Kiss In A Shadow
DR7       -5.18 дБ   -13.70 дБ      3:49 05-Traveling Light
DR6       -5.10 дБ   -12.67 дБ      5:14 06-The Day Of Wine And Roses
DR7       -4.72 дБ   -12.92 дБ      6:40 07-The Lamp Is Low
DR9       -4.74 дБ   -17.37 дБ      6:14 08-But Beautiful
DR9       -4.68 дБ   -14.93 дБ      4:36 09-Gentle Rain
DR7       -5.06 дБ   -14.33 дБ      6:00 10-Cry Me A River
DR8       -4.74 дБ   -14.11 дБ      4:53 11-When Your Lover Has Gone
DR6       -5.20 дБ   -12.71 дБ      4:53 12-Tea For Two
DR6       -5.02 дБ   -13.28 дБ      6:05 13-I Remember Clifford
DR7       -4.58 дБ   -13.77 дБ      6:32 14-My Foolish Heart
DR7       -4.46 дБ   -12.15 дБ      4:04 15-I Got Lost In His Arms
DR7       -5.15 дБ   -14.23 дБ      6:50 16-You Don't Know What Love Is?
DR6       -4.45 дБ   -11.99 дБ      2:41 17-A String Of Pearls
--------------------------------------------------------------------------------

Количество треков: 17
Реальные значения DR: DR7

Частота:  2822400 Гц / Частота PCM: 352800 Гц
Каналов:  2
Разрядность:   1
Битрейт:  5645 кбит/с
Кодек:   DSD64
================================================================================
Приватный:
Нет (DHT включён)
Размер:
3.56 Гб (3,827,646,390 байт) » файлов: 4
Участники:
0 раздают, 0 качают (0 участников всего)
Внешние участники:
8 раздают, 2 качают (10 участников всего) [ Обновить ]
No seeders - write personal message to M0p94ok. Нет сидеров - пишите в личку M0p94ok.
01:04
101
Нет комментариев. Ваш будет первым!