Поиск

2021 Joe Lovano, Marilyn Crispell, Carmen Castaldi - Garden of Expression {ECM} [24-96]

2021 Joe Lovano, Marilyn Crispell, Carmen Castaldi - Garden of Expression {ECM} [24-96]
Стили:
Место записи:
Auditorio Stelio Molo RSI, Lugano, Switzerland
Дата издания диска:
29 января 2021
Издатель (лейбл):
Битрейт аудио:
lossless

Треклист:

1. Chapel Song (6:05)
2. Night Creatures (6:46)
3. West of the Moon (5:47)
4. Garden of Expression (7:28)
5. Treasured Moments (5:04)
6. Sacred Chant (3:14)
7. Dream on That (3:07)
8. Zen Like (10:42)

Доп. инфо:

Формат записи/Источник записи: [TR24][OF]
Наличие водяных знаков: Нет
Год издания: 2021
Продолжительность: 00:48:14
Наличие сканов в содержимом раздачи: Буклет PDF
Контейнер: FLAC (*.flac)
Тип рипа: tracks
Разрядность: 24/96
Формат: PCM
Количество каналов: 2.0
Источник (релизер): qobuz.com

Лог проверки качества
foobar2000 1.4.8 / Dynamic Range Meter 1.1.1
log date: 2021-01-29 18:20:40

--------------------------------------------------------------------------------
Analyzed: Joe Lovano / Garden of Expression
--------------------------------------------------------------------------------

DR         Peak         RMS     Duration Track
--------------------------------------------------------------------------------
DR12      -0.92 dB   -18.27 dB      6:05 01-Chapel Song
DR13      -0.50 dB   -17.76 dB      6:46 02-Night Creatures
DR11      -2.53 dB   -17.74 dB      5:47 03-West of the Moon
DR11      -0.50 dB   -16.82 dB      7:33 04-Garden of Expression
DR12      -0.20 dB   -18.44 dB      5:04 05-Treasured Moments
DR12      -1.40 dB   -17.89 dB      3:14 06-Sacred Chant
DR13      -0.50 dB   -17.69 dB      3:07 07-Dream on That
DR14      -0.65 dB   -21.31 dB     10:42 08-Zen Like
--------------------------------------------------------------------------------

Number of tracks:  8
Official DR value: DR12
Samplerate:        96000 Hz
Channels:          2
Bits per sample:   24
Bitrate:           2320 kbps
Codec:             FLAC
================================================================================
Приватный:
Нет (DHT включён)
Размер:
900.19 Мб (943,913,198 байт) » файлов: 11
Участники:
0 раздают, 0 качают (0 участников всего)
Внешние участники:
34 раздают, 11 качают (45 участников всего) [ Обновить ]
No seeders - write personal message to M0p94ok. Any questions - support@pro-jazz.com.
Нет сидеров - пишите в личку M0p94ok. Есть вопросы - support@pro-jazz.com
12:09
96
Нет комментариев. Ваш будет первым!