Поиск

2021 Shai Maestro - Human {ECM} [24-88.2]

2021 Shai Maestro - Human {ECM} [24-88.2]
Стили:
Место записи:
Studios La Buissonne, Pernes les Fontaines, France
Издатель (лейбл):
Номер по каталогу:
ECM 2688
Битрейт аудио:
lossless
Доп. инфо:

Формат записи/Источник записи: [TR24][OF]
Наличие водяных знаков: Нет
Год издания: 2021
Продолжительность: 00:56:18
Наличие сканов в содержимом раздачи: Буклет PDF
Контейнер: FLAC (*.flac)
Тип рипа: tracks
Разрядность: 24/88.2
Формат: PCM
Количество каналов: 2.0
Источник (релизер): prestomusic.com

Лог проверки качества
foobar2000 1.4.8 / Dynamic Range Meter 1.1.1
log date: 2021-01-29 21:17:14

--------------------------------------------------------------------------------
Analyzed: Shai Maestro  / Human (1-7)
          Shai Maestro / Human (8-11)
--------------------------------------------------------------------------------

DR         Peak         RMS     Duration Track
--------------------------------------------------------------------------------
DR13      -0.32 dB   -16.99 dB      7:54 05-The Thief’s Dream
DR13      -6.30 dB   -24.14 dB      4:42 06-Hank and Charlie
DR13      -7.71 dB   -26.44 dB      3:25 07-Compassion
DR11      -0.84 dB   -16.82 dB      4:27 08-Prayer
DR13      -0.48 dB   -19.31 dB      5:23 09-They Went to War
DR13      -0.48 dB   -16.72 dB      5:47 10-In a Sentimental Mood
DR15      -1.32 dB   -22.21 dB      5:33 11-Ima (For Talma Maestro)
DR13      -2.87 dB   -22.73 dB      3:24 01-Time
DR12      -0.34 dB   -17.06 dB      8:32 02-Mystery and Illusions
DR11      -0.37 dB   -17.36 dB      2:34 03-Human
DR13      -3.74 dB   -22.35 dB      4:46 04-GG
--------------------------------------------------------------------------------

Number of tracks:  11
Official DR value: DR13
Samplerate:        88200 Hz
Channels:          2
Bits per sample:   24
Bitrate:           2124 kbps
Codec:             FLAC
================================================================================
No seeders - write personal message to M0p94ok. Any questions - support@pro-jazz.com.
Нет сидеров - пишите в личку M0p94ok. Есть вопросы - support@pro-jazz.com
13:23
129
Нет комментариев. Ваш будет первым!