Поиск

2021 Richard Elliot - Authentic Life {Shanachie} [24-44.1]

2021 Richard Elliot - Authentic Life {Shanachie} [24-44.1]
Стили:
Издатель (лейбл):
Битрейт аудио:
lossless

Треклист:

01. Snapshot (4:18)
02. Walk With Me (4:15)
03. Right On Time (4:27)
04. Authentic Life (4:06)
05. Move Ahead (3:56)
06. Living Inside Myself (4:20)
07. Elegant People (4:22)
08. Moon Gazer (4:45)
09. Secrets (4:12)
10. Boogie (5:39)

Доп. инфо:

Формат записи/Источник записи: [TR24][OF]
Наличие водяных знаков: Нет
Год издания: 2021
Продолжительность: 00:44:15
Наличие сканов в содержимом раздачи: Буклет PDF
Контейнер: FLAC (*.flac)
Тип рипа: tracks
Разрядность: 24/44.1
Формат: PCM
Количество каналов: 2.0
Источник (релизер): qobuz.com

Лог проверки качества
foobar2000 1.4.8 / Dynamic Range Meter 1.1.1
log date: 2021-01-29 22:38:35

--------------------------------------------------------------------------------
Analyzed: Richard Elliot / Authentic Life
--------------------------------------------------------------------------------

DR         Peak         RMS     Duration Track
--------------------------------------------------------------------------------
DR9       -0.79 dB   -11.65 dB      4:18 01-Snapshot
DR9       -0.78 dB   -11.96 dB      4:15 02-Walk With Me
DR8       -0.78 dB   -10.99 dB      4:27 03-Right On Time
DR8       -0.78 dB   -10.92 dB      4:06 04-Authentic Life
DR7       -0.77 dB    -9.43 dB      3:56 05-Move Ahead
DR9       -0.78 dB   -11.63 dB      4:20 06-Living Inside Myself
DR8       -0.78 dB   -11.24 dB      4:22 07-Elegant People
DR9       -0.78 dB   -11.53 dB      4:45 08-Moon Gazer
DR8       -0.78 dB   -11.09 dB      4:12 09-Secrets
DR8       -0.76 dB   -10.66 dB      5:39 10-Boogie
--------------------------------------------------------------------------------

Number of tracks:  10
Official DR value: DR8
Samplerate:        44100 Hz
Channels:          2
Bits per sample:   24
Bitrate:           1708 kbps
Codec:             FLAC
================================================================================
Приватный:
Нет (DHT включён)
Размер:
532.68 Мб (558,557,908 байт) » файлов: 13
Участники:
0 раздают, 0 качают (0 участников всего)
Внешние участники:
9 раздают, 3 качают (12 участников всего) [ Обновить ]
No seeders - write personal message to M0p94ok. Нет сидеров - пишите в личку M0p94ok.
14:25
108
Нет комментариев. Ваш будет первым!