Вы используете незарегистрированную версию компонента "Вкладки"!

Поиск

2016 VA - Venus The Amazing Super Audio CD Sampler Vol.14 {Venus} [DSD64]

2016 VA - Venus The Amazing Super Audio CD Sampler Vol.14 {Venus} [DSD64]
Издатель (лейбл):
Номер по каталогу:
VHGD-149
Битрейт аудио:
lossless
Доп. инфо:

Формат записи/Источник записи: [SACD-R][OF]
Наличие водяных знаков: Нет
Издание: Sampler
Год издания диска: 2016
Продолжительность: 01:27:45
Наличие сканов в содержимом раздачи: Только обложка альбома

Контейнер: ISO (*.iso)
Тип рипа: image
Разрядность: 64 (2,8 MHz/1 Bit)
Формат: DSD
Количество каналов: 2.0

Источник (релизер): venusrecords

Лог проверки качества
foobar2000 1.6.3 / Замер динамического диапазона (DR) 1.1.1
Дата отчёта:  2021-01-30 16:28:14

--------------------------------------------------------------------------------
Анализ:   Various Artists / Venus The Amazing Super Audio CD Sampler Vol.14
--------------------------------------------------------------------------------

DR         Пики         RMS           Продолжительность трека
--------------------------------------------------------------------------------
DR8       -4.36 дБ   -14.82 дБ      5:54 01-The Last Time I Saw Paris
DR7       -4.62 дБ   -13.31 дБ      3:59 02-Lover Come Back To Me
DR7       -5.15 дБ   -13.12 дБ      3:59 03-Eleanor Rigby
DR6       -3.94 дБ   -12.41 дБ      8:31 04-Moanin'
DR8       -5.08 дБ   -16.27 дБ      4:53 05-Manha De Carnaval
DR7       -4.31 дБ   -12.76 дБ      5:02 06-Heart - Shaped Box
DR8       -4.77 дБ   -14.87 дБ      6:00 07-Willow Weep For Me
DR7       -4.07 дБ   -12.68 дБ      6:02 08-On A Tropic Night
DR6       -4.80 дБ   -11.86 дБ      5:50 09-Dear Old Stockholm
DR9       -5.18 дБ   -15.82 дБ      4:03 10-Jardim
DR7       -4.70 дБ   -13.85 дБ      7:49 11-El Toro Y La Luna
DR7       -4.75 дБ   -13.63 дБ      6:00 12-They Can't Take That Away From Me
DR10      -4.86 дБ   -18.35 дБ      4:18 13-Thou Swell
DR6       -5.21 дБ   -12.36 дБ      7:34 14-Granadas
DR8       -4.33 дБ   -13.43 дБ      7:50 15-Greensleaves
--------------------------------------------------------------------------------

Количество треков: 15
Реальные значения DR: DR7

Частота:  2822400 Гц / Частота PCM: 352800 Гц
Каналов:  2
Разрядность:   1
Битрейт:  5645 кбит/с
Кодек:   DSD64
================================================================================
Any questions - support@pro-jazz.com. Есть вопросы - support@pro-jazz.com
17:23
145
Нет комментариев. Ваш будет первым!