Поиск

2016 Tim Stine Trio - Tim Stine Trio {Astral Spirits} [16-48]

2016 Tim Stine Trio - Tim Stine Trio {Astral Spirits} [16-48]
Стили:
Дата издания диска:
2 сентября 2016
Битрейт аудио:
lossless
Треклист:

01. dB (lowercase d, Big B) 05:06
02. Wye In 04:50
03. Come on D 03:14
04. Port Pier 04:56
05. Shot 03:30
06. Watts 04:24
07. Grade 04:26
08. Delung 05:44
09. Kneeds 05:53
10. Letters & Letters 05:50

Доп. инфо:

Формат записи/Источник записи: [OF]
Наличие водяных знаков: Нет
Год издания/переиздания диска: 2016
Издатель (лейбл): Astral Spirits
Продолжительность: 00:47:58
Наличие сканов в содержимом раздачи: Только обложка альбома

Контейнер: FLAC (*.flac)
Тип рипа: tracks
Разрядность: 16/48
Формат: PCM
Количество каналов: 2.0

Источник (релизер): bandcamp

Лог проверки качества
foobar2000 1.6.2 / Dynamic Range Meter 1.1.1
log date: 2021-01-30 18:05:19

--------------------------------------------------------------------------------
Analyzed: Tim Stine Trio / Tim Stine Trio
--------------------------------------------------------------------------------

DR         Peak         RMS     Duration Track
--------------------------------------------------------------------------------
DR12       0.00 dB   -15.35 dB      5:07 01-dB (lowercase d, Big B)
DR13      -0.09 dB   -16.36 dB      4:50 02-Wye In
DR12      -0.11 dB   -14.77 dB      3:15 03-Come on D
DR14      -0.10 dB   -17.74 dB      4:56 04-Port Pier
DR10       0.00 dB   -12.26 dB      3:31 05-Shot
DR13      -0.10 dB   -16.90 dB      4:24 06-Watts
DR11       0.00 dB   -14.73 dB      4:27 07-Grade
DR15      -0.12 dB   -19.79 dB      5:44 08-Delung
DR13      -0.02 dB   -17.92 dB      5:54 09-Kneeds
DR14      -0.09 dB   -16.98 dB      5:51 10-Letters & Letters
--------------------------------------------------------------------------------

Number of tracks:  10
Official DR value: DR13

Samplerate:        48000 Hz
Channels:          2
Bits per sample:   16
Bitrate:           757 kbps
Codec:             FLAC
================================================================================
Приватный:
Нет (DHT включён)
Размер:
255.79 Мб (268,213,030 байт) » файлов: 12
Участники:
0 раздают, 0 качают (0 участников всего)
Внешние участники:
5 раздают, 1 качают (6 участников всего) [ Обновить ]
No seeders - write personal message to M0p94ok. Нет сидеров - пишите в личку M0p94ok.
18:55
101
Нет комментариев. Ваш будет первым!