Вы используете незарегистрированную версию компонента "Вкладки"!

Поиск

1994 Chas Burchell - Unsung Hero - The Undiscovered Genius of Chas Burchell {In+Out} [24-44.1]

1994 Chas Burchell - Unsung Hero - The Undiscovered Genius of Chas Burchell {In+Out} [24-44.1]
Стили:
Битрейт аудио:
lossless
Доп. инфо:

Формат записи/Источник записи: [TR24][OF]
Издание: Remastered
Год издания/переиздания диска: 1994
Издатель (лейбл): IN+OUT Records
Продолжительность: 01:07:18
Наличие сканов в содержимом раздачи: Нет

Контейнер: FLAC (*.flac)
Тип рипа: tracks
Разрядность: 24/44,1
Количество каналов: 2.0

Источник (релизер): HIGHRESAUDIO

Час Берчелл был малоизвестным и по совместительству, талантливым британским тенор-саксофонистом. В начале своей карьеры он стал управляющим фабрики, чтобы играть музыку, которую он больше всего любил. Под влиянием Уорна Марша (Warne Marsh) и Стэна Гетца (Stan Getz) Берчелл руководил своим Chastet в течение нескольких десятилетий, вплоть до своей смерти в 1986. За это время он записался только три раза в качестве сайдмена на лейбле басиста Питера Инда Wave. Но после его смерти бывшие коллеги Берчелла выступили на нескольких благотворительных концертах, чтобы собрать деньги на памятный компакт-диск, сделанный из частных кассет, и этот диск стал результатом их усилий. Берчелла можно услышать на семи композициях, записанных в период с 1977 по 1985, за исключением трёх композиций 1962. Есть также версия его темы "Solea" 1993 в исполнении оставшихся в живых членов Chastet. В дополнение к прекрасным британским музыкантам, великий флюгельгорн Кларк Терри (Clark Terry) стал гостем Берчелла в "Just Squeeze Me" и "Blue Monk". Среди других ярких моментов - "Have You Met Miss Jones?", "Tickle Toe" и версию "Sonnymoon for Two", в которой Берчелл объединился вместе с другим тенором Ронни Скоттом (Ronnie Scott). Это ценный релиз, который позволит будущим поколениям услышать, каким прекрасным исполнителем на теноре был Час Берчелл на протяжении своей неожиданной карьеры.

Лог проверки качества
foobar2000 1.3.16 / Dynamic Range Meter 1.1.1
log date: 2020-05-22 10:51:30

--------------------------------------------------------------------------------
Analyzed: Chas Burchell / Unsung Hero - The Undiscovered Genius of Chas Burchell (Remastered)
--------------------------------------------------------------------------------

DR         Peak         RMS     Duration Track
--------------------------------------------------------------------------------
DR14      -1.07 dB   -18.69 dB      5:01 01-Juicy Lucy
DR14      -1.15 dB   -18.79 dB      3:23 02-Bobblin'
DR17      -1.27 dB   -21.46 dB      4:13 03-Gone into It
DR8       -2.03 dB   -12.93 dB      3:57 04-Have You Met Miss Jones
DR13      -1.14 dB   -19.39 dB      5:16 05-It's You or No One / Shades
DR11      -1.06 dB   -14.57 dB      4:43 06-Marsh Bars
DR13      -1.33 dB   -18.31 dB      3:25 07-Which Way
DR10      -1.29 dB   -15.97 dB      7:42 08-Just Squeeze Me
DR10      -1.23 dB   -16.76 dB      7:30 09-Blue Monk
DR9       -2.62 dB   -14.46 dB      4:32 10-Tickle Toe
DR12      -1.05 dB   -16.80 dB      4:22 11-Comeback
DR13      -1.05 dB   -17.65 dB      3:23 12-Sometimes
DR13      -2.19 dB   -17.77 dB      4:51 13-Sonnymoon for Two
DR16      -1.06 dB   -20.69 dB      5:09 14-Soleá
--------------------------------------------------------------------------------

Number of tracks:  14
Official DR value: DR12

Samplerate:        44100 Hz
Channels:          2
Bits per sample:   24
Bitrate:           1450 kbps
Codec:             FLAC
================================================================================
Any questions - support@pro-jazz.com. Есть вопросы - support@pro-jazz.com
22:55
149
Нет комментариев. Ваш будет первым!