Поиск

2021 Antonio Neves - A Pegada Agora É Essa (The Sway Now) {Far Out} [24-48]

2021 Antonio Neves - A Pegada Agora É Essa (The Sway Now) {Far Out} [24-48]
Дата издания диска:
19 февраля 2021
Носитель:
WEB
Формат:
PCM
Тип рипа:
tracks
Контейнер:
FLAC (*.flac)
Количество каналов:
2.0
Разрядность/ЧД:
24/48
Битрейт аудио:
lossless
Время звучания:
00:35:56
Наличие сканов:
только обложка
Наличие водяных знаков:
нет
Страна-производитель диска (релиза):
Brazil
Релизёр (источник):
M0p94ok

Треклист:

1. Simba feat. Leda  02:15
2. A Pegada Agora É Essa feat. Marcos Esguleba  04:19
3. Noite de Temporal feat. Alice Caymmi  04:50
4. Luz Negra feat. Ana Frango Elétrico  04:12
5. Forte Apache feat. Hamilton De Holanda  05:55
6. Lamento de um Perplexo feat. Leo Gandelman  05:03
7. Summertime  04:12
8. Jongo no Feudo feat. Edu Neves  05:10

Доп. инфо:

От самбы и босса-новы до фанка бейла, с кариоковыми выражениями джаза, рока и хип-хопа между ними, звучание Рио-де-Жанейро, непрерывно развивающееся, всегда сохраняло неизгладимое качество, отражающее магию и мистику самого города. . Мульти-инструменталист и аранжировщик Антонио Невес - новейший первопроходец города: enfant-ужас на музыкальной сцене Рио, возглавляющий жизненно важную и разнообразную плеяду как начинающих, так и известных артистов, продвигающих музыкальное наследие города.

«Все началось одной бессонной ночью после просмотра документального фильма о Куинси Джонсе». Вдохновленный легендарным музыкальным магнатом, Невес начал составлять список артистов, проживающих в Рио-де-Жанейро, «людей, которыми я восхищаюсь, которых я считаю гениями своих инструментов, которые разделяют со мной близость, беспокойство и проекты». В список вошли некоторые из наиболее уважаемых ныне живущих музыкантов, с которыми Невес работал в последние годы, такие как Гамильтон де Холанда и Лео Гандельман. Невес также обратился к некоторым из самых ярких молодых талантов Бразилии, включая Алису Каймми и Ану Франго Элетрико.

A Pegada Agora É Essa (The Sway Now) - второй альбом Невеса: яркий портрет современной бразильской музыкальной сцены. От регионального до универсального, от популярного до эрудированного, от самбы до рэпа, от латинских ритмов до джаза, от MPB и от поп-музыки до старого доброго рок-н-ролла - Невес свободно и мастерски ходит среди всех музыкальных жанров, которые может предложить Бразилия.

«Моим предложением музыкантам была полная свобода самовыражения с помощью предложенных мною песен - таких классических песен, как« Summertime »,« Luz Negra »и« Noite de Temporal », а также моих собственных композиций - создание пространства авторства для группы и Гости. Пространство для изобретений, чисток, заблуждений, смеха. Идея заключалась в том, чтобы принести свободу джаза, пересекаемую бразильскими ритмами, такими как традиционные Partido Alto (A Pegada Agora É Essa) и Jongo (Jongo no Feudo и Luz Negra); ритмы афро-бразильских религий, таких как Кандомбле (Noite de Temporal) и Умбанда (Forte Apache); и дань уважения новейшему вкладу Рио-де-Жанейро в бразильскую музыку - Funk Carioca (Simba) ».

Отец Антонио, Эдуардо Невес, происходил из музыкальной семьи. Он был известным дирижером и профессором Джульярдской школы музыки и Калифорнийской джазовой консерватории. В богемном районе Лапа, 14 лет, Антонио начал свою карьеру в качестве барабанщика, прежде чем экспериментировать с медными духами. Вскоре он стал опытным тромбонистом и аранжировщиком, добившись признания своих учителей и сверстников. Вскоре он начал играть с некоторыми из самых громких имен бразильской музыки, такими как Гамильтон де Холанда, Лео Гандельман, Морено Велозу, Кассин и Эльза Соарес.

Его дебютным альбомом как тромбониста был PA7 (2017, Rock It), выпущенный в то же время, когда он путешествовал по миру, играя с такими артистами, как Морено Велосо, Кассин и Лео Гандельман, и записывал альбомы Jobim, Orquestra e Convidados (2017, Biscoito). Фино) с Марио Аднетом и Пауло Жобимом; и Elza Soares Canta e Chora Lupi (2017, Coqueiro Verde Records). Совсем недавно Невес был аранжировщиком известного альбома Аны Франго Элетрико Little Electric Chicken Heart, который был номинирован на латинскую премию Грэмми и признан Ассоциацией арт-критиков Сан-Паулу «Откровением бразильской музыки» 2019 года.

https://antonioneves.bandcamp.com/album/a-pegada-agora-essa-the-sway-now

Лог проверки качества
foobar2000 1.6.2 / Dynamic Range Meter 1.1.1
log date: 2021-04-06 10:41:56

--------------------------------------------------------------------------------
Analyzed: Antonio Neves / A Pegada Agora É Essa
--------------------------------------------------------------------------------

DR         Peak         RMS     Duration Track
--------------------------------------------------------------------------------
DR10      -0.72 dB   -11.77 dB      2:16 01-Simba
DR10      -1.21 dB   -12.47 dB      4:19 02-A Pegada Agora É Essa
DR9       -0.30 dB   -11.87 dB      4:50 03-Noite de Temporal
DR9       -1.07 dB   -12.15 dB      4:12 04-Luz Negra
DR9       -0.91 dB   -11.11 dB      5:56 05-Forte Apache
DR9       -0.45 dB   -12.41 dB      5:04 06-Lamento de um Perplexo
DR9       -0.79 dB   -10.86 dB      4:13 07-Summertime
DR9       -1.01 dB   -11.91 dB      5:11 08-Jongo no Feudo
--------------------------------------------------------------------------------

Number of tracks:  8
Official DR value: DR9

Samplerate:        48000 Hz
Channels:          2
Bits per sample:   24
Bitrate:           1482 kbps
Codec:             FLAC
================================================================================
Приватный:
Нет (DHT включён)
Размер:
416.39 Мб (436,618,742 байт) » файлов: 12
Участники:
1 раздают, 0 качают (1 участников всего)
Внешние участники:
--- [ Обновить ]
No seeders - write personal message to M0p94ok. Any questions - support@pro-jazz.com.
Нет сидеров - пишите в личку M0p94ok. Есть вопросы - support@pro-jazz.com
11:07
98
Нет комментариев. Ваш будет первым!