Поиск

2020 Dizzy Gillespie - Simply... Dizzy! {Jube Legends} [24-48]

2020 Dizzy Gillespie - Simply... Dizzy! {Jube Legends} [24-48]
Стили:
Битрейт аудио:
lossless
Доп. инфо:

Формат записи/Источник записи: [TR24][OF]
Издание: Remastered
Год издания/переиздания диска: 2020
Издатель (лейбл): Jube Legends
Продолжительность: 02:17:31
Наличие сканов в содержимом раздачи: Нет

Контейнер: FLAC (*.flac)
Тип рипа: tracks
Разрядность: 24/48
Количество каналов: 2.0

Источник (релизер): HIGHRESAUDIO

Лог проверки качества
foobar2000 1.4.3 / Dynamic Range Meter 1.1.1
log date: 2021-01-14 20:38:30

--------------------------------------------------------------------------------
Analyzed: Dizzy Gillespie / Simply... Dizzy! (1-28)
          Ira Gershwin / Simply... Dizzy! (29)
--------------------------------------------------------------------------------

DR         Peak         RMS     Duration Track
--------------------------------------------------------------------------------
DR11      -1.42 dB   -15.94 dB      3:03 01-52nd Street Theme
DR10      -1.42 dB   -13.64 dB      3:15 02-Now's the Time
DR7       -1.42 dB   -10.93 dB      2:44 03-Things to Come (Version 1)
DR9       -1.42 dB   -12.28 dB      2:56 04-Koko
DR10      -1.42 dB   -14.88 dB      2:36 05-Anthropolgy
DR11      -1.42 dB   -14.07 dB      3:10 06-Stay on It
DR10      -1.42 dB   -13.14 dB      5:53 07-Settin' the Pace
DR12      -1.42 dB   -16.51 dB      2:52 08-One Bass Hit
DR12      -1.42 dB   -15.45 dB      3:03 09-Katy
DR9       -1.42 dB   -13.45 dB      2:59 10-Oh Bop Sh'Bam
DR9       -1.42 dB   -13.41 dB      2:38 11-That's Earl Brother
DR11      -1.42 dB   -14.55 dB      2:19 12-Ray's Idea
DR10      -1.42 dB   -14.04 dB      2:27 13-Our Delight
DR10      -1.42 dB   -14.72 dB      3:05 14-Emanon
DR12      -1.42 dB   -18.24 dB      4:24 15-Slam Slam Blues
DR11      -1.42 dB   -15.82 dB      5:22 16-Sometimes I'm Happy
DR11      -1.42 dB   -14.86 dB      9:51 17-Limehouse Blues
DR12      -1.42 dB   -17.70 dB     11:12 18-Ballad Medley: I'm Through with Love - Can't We Be Friends - I Don't Know Why - If I Had You
DR10      -1.42 dB   -14.31 dB      9:01 19-Blue Moon
DR18      -1.42 dB   -23.23 dB      8:17 20-Bebop
DR13      -1.42 dB   -17.71 dB      4:48 21-My Heart Belongs to Daddy
DR10      -1.42 dB   -16.99 dB      8:17 23-Stompin' at the Savoy
DR10      -1.42 dB   -15.35 dB      3:25 24-Stardust
DR11      -1.42 dB   -15.25 dB      4:56 25-Lip's Flips
DR10      -1.42 dB   -13.86 dB      2:16 26-Guys Got to Go
DR12      -1.42 dB   -15.77 dB      7:33 27-Kerouac
DR10      -1.42 dB   -14.75 dB      6:09 28-Up on Teddy's Hill
DR14      -1.42 dB   -19.82 dB      5:20 29-Things to Come (Alternative Version)
DR10      -1.42 dB   -15.62 dB      2:54 22-Embreacable You
--------------------------------------------------------------------------------

Number of tracks:  29
Official DR value: DR11

Samplerate:        48000 Hz
Channels:          2
Bits per sample:   24
Bitrate:           1384 kbps
Codec:             FLAC
================================================================================
No seeders - write personal message to M0p94ok. Any questions - support@pro-jazz.com.
Нет сидеров - пишите в личку M0p94ok. Есть вопросы - support@pro-jazz.com
11:17
131
Нет комментариев. Ваш будет первым!