Поиск

2017 VA - Isolajazz – Venus Records Night All Stars {Venus} [DSD64]

2017 VA - Isolajazz – Venus Records Night All Stars {Venus} [DSD64]
Издатель (лейбл):
Номер по каталогу:
VHGD-285
Битрейт аудио:
lossless
Доп. инфо:

Формат записи/Источник записи: [SACD-R][OF]
Наличие водяных знаков: Нет
Год издания/переиздания диска: 2017/2018
Продолжительность: 01:04:16
Наличие сканов в содержимом раздачи: Только обложка альбома

Контейнер: ISO (*.iso)
Тип рипа: image
Разрядность: 64(2,8 MHz/1 Bit)
Формат: DSD
Количество каналов: 2.0

Доп. информация: venusrecords
Источник (релизер): jazzy pic

Лог проверки качества
foobar2000 1.6.3 / Замер динамического диапазона (DR) 1.1.1
Дата отчёта:  2021-02-01 20:33:42

--------------------------------------------------------------------------------
Анализ:   VENUS RECORDS ALL STARS / Isolajazz
--------------------------------------------------------------------------------

DR         Пики         RMS           Продолжительность трека
--------------------------------------------------------------------------------
DR12      -4.77 дБ   -22.64 дБ      4:15 01-MC
DR7       -4.60 дБ   -14.24 дБ     15:38 02-Canadian Sunset
DR6       -4.72 дБ   -12.33 дБ      9:04 03-Theme From Mash
DR6       -4.81 дБ   -13.39 дБ      5:40 04-Estrada Branca
DR6       -4.30 дБ   -13.18 дБ      5:25 05-Teach Me Tonight
DR9       -5.02 дБ   -17.33 дБ      6:41 06-Skylark
DR8       -4.93 дБ   -17.43 дБ      7:33 07-September Song
DR5       -4.57 дБ   -12.31 дБ     10:00 08-Sunny
--------------------------------------------------------------------------------

Количество треков: 8
Реальные значения DR: DR8

Частота:  2822400 Гц / Частота PCM: 352800 Гц
Каналов:  2
Разрядность:   1
Битрейт:  5645 кбит/с
Кодек:   DSD64
================================================================================
No seeders - write personal message to M0p94ok. Any questions - support@pro-jazz.com.
Нет сидеров - пишите в личку M0p94ok. Есть вопросы - support@pro-jazz.com
13:32
141
Нет комментариев. Ваш будет первым!