Поиск

2013 Benoit Delbecq - Fun House {Songlines} [24-88.2]

2013 Benoit Delbecq - Fun House {Songlines} [24-88.2]
Стили:
Дата записи диска:
8 мая - 9 мая 2012
Место записи:
Studio De Meudon, France
Дата издания диска:
28 февраля 2013
Номер по каталогу:
SGL 1600-2
Носитель:
WEB
Формат:
PCM
Тип рипа:
tracks
Контейнер:
FLAC (*.flac)
Количество каналов:
2.0
Разрядность/ЧД:
24/88,2
Битрейт аудио:
lossless
Время звучания:
00:52:37
Наличие сканов:
только обложка
Страна-производитель диска (релиза):
Canada
Релизёр (источник):
M0p94ok
Лог проверки качества
foobar2000 1.3.16 / Dynamic Range Meter 1.1.1
log date: 2019-05-08 17:16:01

--------------------------------------------------------------------------------
Analyzed: Benoît Delbecq and Fred Hersch Double Trio / Fun House
--------------------------------------------------------------------------------

DR         Peak         RMS     Duration Track
--------------------------------------------------------------------------------
DR12       0.00 dB   -17.29 dB      3:19 01-Hushes
DR11       0.00 dB   -17.04 dB      3:15 02-Ronchamp
DR13       0.00 dB   -15.75 dB      7:56 03-Strange Loop
DR14       0.00 dB   -19.21 dB      5:55 04-Fun House
DR12       0.00 dB   -16.94 dB      6:51 05-Le Rayon Vert
DR12       0.00 dB   -15.36 dB      5:51 06-Night for Day
DR14      -0.27 dB   -19.78 dB      5:13 07-One is Several
DR15       0.00 dB   -19.25 dB      5:14 08-Tide
DR12       0.00 dB   -17.39 dB      5:13 09-Two Lakes
DR12      -3.51 dB   -18.81 dB      3:14 10-Lonely Woman
--------------------------------------------------------------------------------

Number of tracks:  10
Official DR value: DR13

Samplerate:        88200 Hz
Channels:          2
Bits per sample:   24
Bitrate:           2184 kbps
Codec:             FLAC
================================================================================
No seeders - write personal message to M0p94ok. Any questions - support@pro-jazz.com.
Нет сидеров - пишите в личку M0p94ok. Есть вопросы - support@pro-jazz.com
13:59
120
Нет комментариев. Ваш будет первым!