Вы используете незарегистрированную версию компонента "Вкладки"!

Поиск

2010 Mike Mainieri Northern Lights - A Special Concert: Live from Rainbow Studio {GubeMusic} [24-96]

2010 Mike Mainieri Northern Lights - A Special Concert: Live from Rainbow Studio {GubeMusic} [24-96]
Битрейт аудио:
lossless
Доп. инфо:

Формат записи/Источник записи: [TR24][OF]
Наличие водяных знаков: Нет
Год издания/переиздания диска: 2010
Издатель (лейбл): GubeMusic
Продолжительность: 00:48:55
Наличие сканов в содержимом раздачи: Буклет PDF

Контейнер: FLAC (*.flac)
Тип рипа: tracks
Разрядность: 24/96
Формат: PCM
Количество каналов: 2.0

Источник (релизер): http://www.gubemusic.com/album_15353
thanks james123 @ redacted

Лог проверки качества
foobar2000 1.0.3 / Dynamic Range Meter 1.1.1
log date: 2021-01-28 11:01:41

--------------------------------------------------------------------------------
Analyzed: Mike Mainieri Northern Lights / Mike Mainieri Northern Lights Live from Rainbow Studio(24Bit96Khz)
--------------------------------------------------------------------------------

DR         Peak         RMS     Duration Track
--------------------------------------------------------------------------------
DR17      -0.12 dB   -20.26 dB      9:02 01-R for Riddle
DR15      -0.12 dB   -19.22 dB      7:42 02-Kannada
DR17      -0.10 dB   -22.32 dB      8:55 03-Nature Boy
DR14      -0.16 dB   -19.95 dB      7:44 04-Lush Life
DR15      -1.11 dB   -20.70 dB      7:30 05-Los Dos Lorettas
DR14      -0.12 dB   -18.45 dB      8:03 06-Poochie Pie
--------------------------------------------------------------------------------

Number of tracks:  6
Official DR value: DR15

Samplerate:        96000 Hz
Channels:          2
Bits per sample:   24
Bitrate:           2920 kbps
Codec:             FLAC
================================================================================
Any questions - support@pro-jazz.com. Есть вопросы - support@pro-jazz.com
19:31
138
Нет комментариев. Ваш будет первым!