Поиск

1956 Cecil Taylor - Jazz Advance (2019) {RevOla} [24-44.1]

1956 Cecil Taylor - Jazz Advance (2019) {RevOla} [24-44.1]
Дата записи диска:
14 сентября 1956
Место записи:
Boston, MA, USA
Издатель (лейбл):
Носитель:
WEB
Формат:
PCM
Тип рипа:
tracks
Контейнер:
FLAC (*.flac)
Количество каналов:
2.0
Разрядность/ЧД:
24/44,1
Битрейт аудио:
lossless
Время звучания:
00:53:24
Наличие сканов:
только обложка
Страна-производитель диска (релиза):
USA
Релизёр (источник):
M0p94ok
Доп. инфо:

Джаз-энциклопедия The Penguin Guide to Jazz включила альбом Jazz Advance в "Центральную коллекцию" — список рекомендованных альбомов, прокомментировав альбом: "Первая запись Тэйлора, оставшаяся одним из наиболее экстраординарных джазовых дебютов, а для 1956 года этот альбом является невероятным прорывом". Музыкальный гид Allmusic опубликовал рецензию на альбом Михаила Настоса (англ. Michael G. Nastos), в которой тот давал следующую оценку альбому Тэйлора: "Хотя многое остаётся непонятным, с годами критика его творчества ослабевает, и становится проще понимать что он совершил… С Jazz Advance началась революция, Тэйлор сделал шаг после которого импровизационная музыка никогда уже не будет прежней. Для тех кто любит перемены этот CD всегда будет занимать верхние позиции". Так же в эссе "Free Jazz: A Subjective History" Криса Келси (англ. Chris Kelsey) опубликованном на Allmusic альбом назван одним из 20 наиболее значимых альбомов в стиле Фри-джаз.

Лог проверки качества
foobar2000 1.3.16 / Dynamic Range Meter 1.1.1
log date: 2019-05-12 15:24:16

--------------------------------------------------------------------------------
Analyzed: Cecil Taylor / Jazz Advance
--------------------------------------------------------------------------------

DR         Peak         RMS     Duration Track
--------------------------------------------------------------------------------
DR16      -2.50 dB   -21.88 dB      7:27 01-Bemsha Swing
DR14      -2.99 dB   -20.90 dB     11:06 02-Charge 'em Blues
DR15      -3.37 dB   -22.57 dB      7:30 03-Azure
DR15      -3.35 dB   -22.84 dB      5:20 04-Song
DR15      -3.27 dB   -22.72 dB      9:18 05-You'd Be So Nice To Come Home To
DR15      -4.18 dB   -21.82 dB      6:06 06-Rick Kick Shaw
DR16      -3.99 dB   -24.33 dB      6:38 07-Sweet and Lovely
--------------------------------------------------------------------------------

Number of tracks:  7
Official DR value: DR15

Samplerate:        44100 Hz
Channels:          2
Bits per sample:   24
Bitrate:           1176 kbps
Codec:             FLAC
================================================================================
No seeders - write personal message to M0p94ok. Any questions - support@pro-jazz.com.
Нет сидеров - пишите в личку M0p94ok. Есть вопросы - support@pro-jazz.com
20:34
134
20:35