Поиск

2021 Delvon Lamarr Organ Trio - I Told You So {Colemine} [24-44.1]

2021 Delvon Lamarr Organ Trio - I Told You So {Colemine} [24-44.1]
Место записи:
Blue Mallard Recording, Seattle, WA
Дата издания диска:
29 января 2021
Битрейт аудио:
lossless

Треклист:

01 - Hole In One 04:34
02 - Call Your Mom 03:59
03 - Girly Face 04:16
04 - From The Streets 04:27
05 - Fo Sho 04:10
06 - Aces 04:41
07 - Careless Whisper 05:34
08 - Right Place, Right Time 04:33
09 - I Don't Know 05:12

Доп. инфо:

Формат записи/Источник записи: [TR24][OF]
Год издания/переиздания диска: 2021
Издатель (лейбл): Colemine Records
Продолжительность: 00:41:26
Наличие сканов в содержимом раздачи: Нет

Контейнер: FLAC (*.flac)
Тип рипа: tracks
Разрядность: 24/44,1
Количество каналов: 2.0

Источник (релизер): Qobuz

Лог проверки качества
foobar2000 1.4.3 / Dynamic Range Meter 1.1.1
log date: 2021-02-01 21:48:38

--------------------------------------------------------------------------------
Analyzed: Delvon Lamarr Organ Trio / I Told You So
--------------------------------------------------------------------------------

DR         Peak         RMS     Duration Track
--------------------------------------------------------------------------------
DR10      -0.30 dB   -11.03 dB      4:35 01-Hole In One
DR8       -0.30 dB   -10.61 dB      3:59 02-Call Your Mom
DR9       -0.30 dB   -10.38 dB      4:16 03-Girly Face
DR9       -0.30 dB   -10.23 dB      4:28 04-From The Streets
DR9       -0.30 dB   -10.43 dB      4:10 05-Fo Sho
DR8       -0.30 dB   -10.29 dB      4:42 06-Aces
DR8       -0.30 dB   -10.18 dB      5:34 07-Careless Whisper
DR9       -0.30 dB   -10.44 dB      4:33 08-Right Place, Right Time
DR9       -0.30 dB   -10.47 dB      5:12 09-I Don't Know
--------------------------------------------------------------------------------

Number of tracks:  9
Official DR value: DR9

Samplerate:        44100 Hz
Channels:          2
Bits per sample:   24
Bitrate:           1550 kbps
Codec:             FLAC
================================================================================
Приватный:
Нет (DHT включён)
Размер:
489.26 Мб (513,022,666 байт) » файлов: 14
Участники:
0 раздают, 0 качают (0 участников всего)
Внешние участники:
20 раздают, 7 качают (27 участников всего) [ Обновить ]
No seeders - write personal message to M0p94ok. Any questions - support@pro-jazz.com.
Нет сидеров - пишите в личку M0p94ok. Есть вопросы - support@pro-jazz.com
22:48
108
Нет комментариев. Ваш будет первым!