Поиск

2018 Daniel Karlsson Trio - 5 {Brus & Knaster} [24-96]

2018 Daniel Karlsson Trio - 5 {Brus & Knaster} [24-96]
Стили:
Дата записи диска:
1 сентября 2017
Место записи:
Great Runmarö Concert Hall with the Brus & Knaster Mobile Studio
Дата издания диска:
23 марта 2018
Номер по каталогу:
Knaster 049
Носитель:
WEB
Формат:
PCM
Тип рипа:
tracks
Контейнер:
FLAC (*.flac)
Количество каналов:
2.0
Разрядность/ЧД:
24/96
Битрейт аудио:
lossless
Время звучания:
00:44:22
Наличие сканов:
только обложка
Страна-производитель диска (релиза):
Sweden
Релизёр (источник):
M0p94ok
Доп. инфо:

Как и прежде, их поток и довольно удивительное производство новой музыки продолжаются… Через пять лет после дебюта пластинки динамичного трио мы с гордостью представляем их пятый альбом, удачно названный № 5. Позитивно наполненный творческой музыкой в семи новых песнях плодовитого пера Даниэля Карлссона, такой же мелодичный и мощный, как всегда, а на этот раз, может быть, даже больше. От задумчивых вступительных треков Dubious Whisper и Let Me Tell You One More Thing к бешеной качке Meet the Moiners с его средней частью водоворота до финальной баллады No Answer - трио снова проявило себя как сила, с которой нужно считаться.

https://danielkarlssontrio.bandcamp.com/album/5

Лог проверки качества
foobar2000 1.3.16 / Dynamic Range Meter 1.1.1
log date: 2019-05-13 19:00:02

--------------------------------------------------------------------------------
Analyzed: Daniel Karlsson Trio / 5
--------------------------------------------------------------------------------

DR         Peak         RMS     Duration Track
--------------------------------------------------------------------------------
DR12      -0.50 dB   -15.65 dB      6:10 01-Dubious Whisper
DR14      -0.50 dB   -17.83 dB      5:16 02-Let Me Tell You One More Thing
DR10      -0.50 dB   -13.59 dB      6:26 03-Salzburg
DR11      -0.50 dB   -13.77 dB      4:14 04-Days Long Lost and Gone
DR10      -0.72 dB   -15.64 dB      8:20 05-In the Tambourine Forge
DR6       -0.50 dB   -10.37 dB      7:51 06-Meet the Moiners
DR11      -1.50 dB   -14.24 dB      6:09 07-No Answer Ballad
--------------------------------------------------------------------------------

Number of tracks:  7
Official DR value: DR11

Samplerate:        96000 Hz
Channels:          2
Bits per sample:   24
Bitrate:           2791 kbps
Codec:             FLAC
================================================================================
No seeders - write personal message to M0p94ok. Any questions - support@pro-jazz.com.
Нет сидеров - пишите в личку M0p94ok. Есть вопросы - support@pro-jazz.com
23:47
123
Нет комментариев. Ваш будет первым!