Вы используете незарегистрированную версию компонента "Вкладки"!

Поиск

2021 Charles Langford - Powerless {Blue Canoe} [24-48]

2021 Charles Langford - Powerless {Blue Canoe} [24-48]
Стили:
Дата издания диска:
26 марта 2021
Номер по каталогу:
BC1460
Носитель:
WEB
Формат:
PCM
Тип рипа:
tracks
Контейнер:
FLAC (*.flac)
Количество каналов:
2.0
Разрядность/ЧД:
24/48
Битрейт аудио:
lossless
Время звучания:
00:57:22
Наличие сканов:
только обложка
Страна-производитель диска (релиза):
USA
Релизёр (источник):
M0p94ok
Лог проверки качества
foobar2000 1.6.2 / Dynamic Range Meter 1.1.1
log date: 2021-04-07 01:01:06

--------------------------------------------------------------------------------
Analyzed: Charles Langford / Powerless
--------------------------------------------------------------------------------

DR         Peak         RMS     Duration Track
--------------------------------------------------------------------------------
DR8       -0.12 dB    -9.50 dB      4:04 01-Bliss
DR8       -0.12 dB    -8.95 dB      4:18 02-Feel the Light
DR8       -0.12 dB    -9.62 dB      3:56 03-Better Days Ahead
DR8       -0.12 dB   -10.05 dB      4:47 04-It's A New Day
DR8       -0.12 dB    -9.93 dB      4:17 05-Feeling Nice
DR8        0.00 dB    -9.55 dB      3:23 06-Close to You
DR10      -0.12 dB   -12.17 dB      3:55 07-Let's Chill
DR8        0.00 dB    -9.76 dB      4:30 08-Midnight Mood
DR8       -0.12 dB    -9.26 dB      4:42 09-Drive Time
DR9       -0.12 dB   -10.13 dB      4:04 10-Holding Back
DR9       -0.12 dB   -10.80 dB      4:53 11-Powerless
DR8       -0.12 dB    -9.35 dB      3:52 12-Thinking Back
DR9       -0.12 dB   -10.60 dB      6:51 13-Top Secret
--------------------------------------------------------------------------------

Number of tracks:  13
Official DR value: DR8

Samplerate:        48000 Hz
Channels:          2
Bits per sample:   24
Bitrate:           1743 kbps
Codec:             FLAC
================================================================================
Any questions - support@pro-jazz.com. Есть вопросы - support@pro-jazz.com
01:32
186
Нет комментариев. Ваш будет первым!