Поиск

2019 Elephant9 - Psychedelic Backfire I {Rune Grammofon} [24-48]

2019 Elephant9 - Psychedelic Backfire I {Rune Grammofon} [24-48]
Дата записи диска:
9 января - 10 января 2019
Место записи:
Live, Kampen Bistro
Номер по каталогу:
RCD2206
Носитель:
WEB
Формат:
PCM
Тип рипа:
tracks
Контейнер:
FLAC (*.flac)
Количество каналов:
2.0
Разрядность/ЧД:
24/48
Битрейт аудио:
lossless
Время звучания:
01:11:15
Наличие сканов:
только обложка
Наличие водяных знаков:
нет
Страна-производитель диска (релиза):
Norway
Релизёр (источник):
M0p94ok

Треклист:

1. I Cover The Mountain Top  12:05
2. Farmer's Secret  07:20
3. Habanera Rocket  17:59
4. Skink / Fugl Fønix  13:21
5. Actionpack1  09:19
6. Dodovoodoo  11:11

Лог проверки качества
foobar2000 1.6.2 / Dynamic Range Meter 1.1.1
log date: 2021-04-07 12:37:27

--------------------------------------------------------------------------------
Analyzed: Elephant9 / Psychedelic Backfire I
--------------------------------------------------------------------------------

DR         Peak         RMS     Duration Track
--------------------------------------------------------------------------------
DR6       -1.00 dB    -9.94 dB     12:06 01-I Cover The Mountain Top
DR8       -1.00 dB   -10.03 dB      7:20 02-Farmer's Secret
DR8       -1.00 dB   -11.52 dB     18:00 03-Habanera Rocket
DR6       -1.00 dB    -8.47 dB     13:22 04-Skink/Fugl Fønix
DR6       -1.00 dB    -7.78 dB      9:20 05-Actionpack1
DR6       -1.00 dB    -8.79 dB     11:12 06-Dodovoodoo
--------------------------------------------------------------------------------

Number of tracks:  6
Official DR value: DR7

Samplerate:        48000 Hz
Channels:          2
Bits per sample:   24
Bitrate:           1707 kbps
Codec:             FLAC
================================================================================
Приватный:
Нет (DHT включён)
Размер:
852.40 Мб (893,808,429 байт) » файлов: 9
Участники:
1 раздают, 0 качают (1 участников всего)
Внешние участники:
--- [ Обновить ]
For power users only: no seeders - write to support@pro-jazz.com. Для power user: нет сидеров - пишите на support@pro-jazz.com.
12:48
22
Нет комментариев. Ваш будет первым!