Поиск

2021 Emmet Cohen - Future Stride {Mack Avenue} [24-96]

2021 Emmet Cohen - Future Stride {Mack Avenue} [24-96]
Стили:
Дата издания диска:
29 января 2021
Издатель (лейбл):
Номер по каталогу:
MAC1181
Битрейт аудио:
lossless

Треклист:

01. Symphonic Raps (3:08)
02. Reflections at Dusk (5:12)
03. Toast to Lo (6:42)
04. Future Stride (5:54)
05. Second Time Around (6:28)
06. Dardanella (5:25)
07. You Already Know (3:31)
08. Pitter Panther Patter (2:25)
09. My Heart Stood Still (4:56)
10. Little Angel (3:38)

Доп. инфо:

Формат записи/Источник записи: [TR24][OF]
Наличие водяных знаков: Нет
Год издания/переиздания диска: 2021
Продолжительность: 00:47:17
Наличие сканов в содержимом раздачи: Нет

Контейнер: FLAC (*.flac)
Тип рипа: tracks
Разрядность: 24/96
Формат: LPCM
Количество каналов: 2.0

Источник (релизер): qobuz.com (plitss)

Лог проверки качества
foobar2000 1.4.6 / Замер динамического диапазона (DR) 1.1.1
Дата отчёта:  2021-02-02 08:38:44

--------------------------------------------------------------------------------
Анализ:   Emmet Cohen / Future Stride
--------------------------------------------------------------------------------

DR         Пики         RMS           Продолжительность трека
--------------------------------------------------------------------------------
DR11       0.00 дБ   -13.55 дБ      3:08 01-Symphonic Raps
DR11       0.00 дБ   -13.48 дБ      5:12 02-Reflections at Dusk
DR10       0.00 дБ   -11.94 дБ      6:42 03-Toast to Lo
DR12       0.00 дБ   -15.56 дБ      5:54 04-Future Stride
DR14       0.00 дБ   -19.06 дБ      6:28 05-Second Time Around
DR10       0.00 дБ   -14.09 дБ      5:25 06-Dardanella
DR10       0.00 дБ   -12.05 дБ      3:31 07-You Already Know
DR11       0.00 дБ   -14.18 дБ      2:25 08-Pitter Panther Patter
DR12       0.00 дБ   -14.76 дБ      4:56 09-My Heart Stood Still
DR10       0.00 дБ   -13.36 дБ      3:38 10-Little Angel
--------------------------------------------------------------------------------

Количество треков: 10
Реальные значения DR: DR11

Частота:   96000 Гц
Каналов:   2
Разрядность:   24
Битрейт:   2723 кбит/с
Кодек:   FLAC
================================================================================
Приватный:
Нет (DHT включён)
Размер:
945.27 Мб (991,184,418 байт) » файлов: 12
Участники:
0 раздают, 0 качают (0 участников всего)
Внешние участники:
8 раздают, 2 качают (10 участников всего) [ Обновить ]
For power users only: no seeders - write to support@pro-jazz.com. Для power user: нет сидеров - пишите на support@pro-jazz.com.
14:34
21
Нет комментариев. Ваш будет первым!