Поиск

1993 Eddie Allen Quintet - Remembrance (2019) {Venus VHGD-334} [DSD64]

1993 Eddie Allen Quintet - Remembrance (2019) {Venus VHGD-334} [DSD64]
Дата записи диска:
5 сентября - 6 сентября 1993
Место записи:
Skyline Studios, New York City, NY, USA
Издатель (лейбл):
Номер по каталогу:
VHGD-334
Битрейт аудио:
lossless

Треклист:

01. Nudge  05:46
02. Remembrance  06:26
03. Sarah  06:45
04. It's the Nights I Like  07:57
05. Baptized in the Fire  06:14
06. Once in a While  07:52
07. The Spoiler  07:08
08. I Can't Explain  05:07
09. To Those Who Unselfishly Gave  06:34
10. Later  03:19

Доп. инфо:

Формат записи/Источник записи: [SACD-R][OF]
Наличие водяных знаков: Нет
Год издания/переиздания диска: 1993/2019
Продолжительность: 01:03:08
Наличие сканов в содержимом раздачи: Да (сканы)

Контейнер: ISO (*.iso)
Тип рипа: image
Разрядность: 64(2,8 MHz/1 Bit)
Формат: DSD
Количество каналов: 2.0

Доп. информация: venusrecords
Источник (релизер): jazzy pic

Лог проверки качества
foobar2000 1.6.2 / Замер динамического диапазона (DR) 1.1.1
Дата отчёта:  2020-12-20 22:09:08

--------------------------------------------------------------------------------
Анализ:   EDDIE ALLEN / Remembrance
--------------------------------------------------------------------------------

DR         Пики         RMS           Продолжительность трека
--------------------------------------------------------------------------------
DR10      -2.66 дБ   -14.05 дБ      5:46 01-Nudge
DR11      -2.59 дБ   -16.71 дБ      6:26 02-Remenbrance
DR10      -2.25 дБ   -14.73 дБ      6:45 03-Sarah
DR9       -2.88 дБ   -14.59 дБ      7:57 04-It's The Nights I Like
DR10      -2.70 дБ   -15.21 дБ      6:14 05-Baptized In The Fire
DR11      -2.76 дБ   -16.60 дБ      7:52 06-Once In A While
DR9       -2.21 дБ   -13.64 дБ      7:08 07-The Spoiler
DR11      -2.79 дБ   -16.43 дБ      5:07 08-I Can't Explain
DR10      -2.89 дБ   -16.09 дБ      6:34 09-To Those Who Unselfishly Gave
DR10      -2.42 дБ   -14.39 дБ      3:19 10-Later
--------------------------------------------------------------------------------

Количество треков: 10
Реальные значения DR: DR10

Частота:  2822400 Гц / Частота PCM: 352800 Гц
Каналов:  2
Разрядность:   1
Битрейт:  5645 кбит/с
Кодек:   DSD64
================================================================================
Приватный:
Нет (DHT включён)
Размер:
2.54 Гб (2,727,756,715 байт) » файлов: 4
Участники:
1 раздают, 1 качают (2 участников всего)
Внешние участники:
5 раздают, 2 качают (7 участников всего) [ Обновить ]
No seeders - write personal message to M0p94ok. Нет сидеров - пишите в личку M0p94ok.
12:51
116
Нет комментариев. Ваш будет первым!