Поиск

2014 Avishai Cohen's Triveni - Dark Nights {Anzic} [24-88.2]

2014 Avishai Cohen's Triveni - Dark Nights {Anzic} [24-88.2]
Дата записи диска:
28 сентября 2013
Место записи:
The Bunker, Brooklyn, New York City, NY, USA
Дата издания диска:
28 октября 2014
Номер по каталогу:
ANZ-0045
Носитель:
WEB
Формат:
PCM
Тип рипа:
tracks+.cue
Контейнер:
APE (*.ape)
Количество каналов:
2.0
Разрядность/ЧД:
24/88,2
Битрейт аудио:
lossless
Время звучания:
00:53:17
Наличие сканов:
web
Страна-производитель диска (релиза):
USA
Релизёр (источник):
M0p94ok
Лог проверки качества
foobar2000 1.3.16 / Dynamic Range Meter 1.1.1
log date: 2019-05-01 14:24:39

--------------------------------------------------------------------------------
Analyzed: Avishai Cohen (b) / Dark Nights
--------------------------------------------------------------------------------

DR         Peak         RMS     Duration Track
--------------------------------------------------------------------------------
DR8       -0.68 dB   -11.54 dB      7:04 01-Dark Nights, Darker Days
DR11      -0.73 dB   -14.14 dB      5:17 02-You in All Directions
DR10      -0.70 dB   -13.21 dB      5:27 03-Betray
DR12      -0.73 dB   -15.45 dB      1:52 04-Pablo
DR10      -0.72 dB   -14.14 dB      8:28 05-Goodbye Pork Pie Hat
DR9       -0.71 dB   -12.15 dB      2:39 06-The OC
DR10      -0.68 dB   -14.31 dB      7:01 07-Shiny Stockings
DR11      -0.71 dB   -14.31 dB      3:49 08-Lush Life
DR8       -0.69 dB   -12.65 dB      5:45 09-Old Soul
DR13      -3.56 dB   -21.80 dB      6:01 10-I Fall In Love Too Easily
--------------------------------------------------------------------------------

Number of tracks:  10
Official DR value: DR10

Samplerate:        88200 Hz
Channels:          2
Bits per sample:   24
Bitrate:           2287 kbps
Codec:             FLAC
================================================================================
No seeders - write personal message to M0p94ok. Any questions - support@pro-jazz.com.
Нет сидеров - пишите в личку M0p94ok. Есть вопросы - support@pro-jazz.com
13:50
144
Нет комментариев. Ваш будет первым!