Поиск

2017 Arthur Lipner - Bob Marley's Legend: Solo Marimba {Solo Sounds} [24-192]

2017 Arthur Lipner - Bob Marley's Legend: Solo Marimba {Solo Sounds} [24-192]
Стили:
Дата издания диска:
13 января 2017
Битрейт аудио:
lossless
Доп. инфо:

Формат записи/Источник записи: [TR24][OF]
Наличие водяных знаков: Нет
Год издания/переиздания диска: 2017
Издатель (лейбл): Solo Sounds
Продолжительность: 00:49:52
Наличие сканов в содержимом раздачи: Только обложка альбома

Контейнер: FLAC (*.flac)
Тип рипа: tracks
Разрядность: 24/192
Формат: PCM
Количество каналов: 2.0

Источник (релизер): hdtracks

Лог проверки качества
foobar2000 1.6.2 / Dynamic Range Meter 1.1.1
log date: 2020-12-21 19:48:27

--------------------------------------------------------------------------------
Analyzed: Arthur Lipner / Bob Marley's Legend: Solo Marimba
--------------------------------------------------------------------------------

DR         Peak         RMS     Duration Track
--------------------------------------------------------------------------------
DR12      -1.00 dB   -14.65 dB      3:46 01-Is This Love
DR11      -1.00 dB   -14.26 dB      4:33 02-No Woman, No Cry
DR10      -1.00 dB   -13.48 dB      3:21 03-Could You Be Loved
DR12      -1.00 dB   -15.16 dB      3:16 04-Three Little Birds
DR12      -1.00 dB   -15.06 dB      3:04 05-Buffalo Soldier
DR11      -1.00 dB   -14.08 dB      2:56 06-Get Up, Stand Up
DR12      -1.00 dB   -15.16 dB      3:30 07-Stir It Up
DR11      -1.00 dB   -13.94 dB      3:09 08-One Love/People Get Ready
DR11      -1.00 dB   -13.85 dB      3:16 09-I Shot the Sheriff
DR12      -1.00 dB   -14.81 dB      4:33 10-Waiting in Vain
DR12      -1.00 dB   -15.80 dB      3:59 11-Redemption Song
DR12      -1.00 dB   -14.88 dB      3:48 12-Satisfy My Soul
DR10      -1.00 dB   -12.83 dB      3:24 13-Exodus
DR11      -1.00 dB   -13.87 dB      3:17 14-Jamming
--------------------------------------------------------------------------------

Number of tracks:  14
Official DR value: DR11

Samplerate:        192000 Hz
Channels:          2
Bits per sample:   24
Bitrate:           4154 kbps
Codec:             FLAC
================================================================================
No seeders - write personal message to M0p94ok. Any questions - support@pro-jazz.com.
Нет сидеров - пишите в личку M0p94ok. Есть вопросы - support@pro-jazz.com
17:46
132
Нет комментариев. Ваш будет первым!