Поиск

1996 Julian Coryell - Without You (2019) {Venus VHGD-327} [DSD64]

1996 Julian Coryell - Without You (2019) {Venus VHGD-327} [DSD64]
Стили:
Издатель (лейбл):
Номер по каталогу:
VHGD-327
Битрейт аудио:
lossless
Доп. инфо:

Формат записи/Источник записи: [SACD-R][OF]
Наличие водяных знаков: Нет
Год издания/переиздания диска: 1996/2019
Продолжительность: 00:59:42
Наличие сканов в содержимом раздачи: Да (сканы)

Контейнер: ISO (*.iso)
Тип рипа: image
Разрядность: 64 (2,8 MHz/1 Bit)
Формат: DSD
Количество каналов: 2.0

Доп. информация: venusrecords
Источник (релизер): jazzy pic

Лог проверки качества
foobar2000 1.6.2 / Замер динамического диапазона (DR) 1.1.1
Дата отчёта:  2020-12-21 01:14:58

--------------------------------------------------------------------------------
Анализ:   JULIAN CORYELL / Without You
--------------------------------------------------------------------------------

DR         Пики         RMS           Продолжительность трека
--------------------------------------------------------------------------------
DR11      -3.31 дБ   -16.03 дБ      5:35 01-Gay's Flight
DR9       -2.92 дБ   -14.02 дБ      8:40 02-Moments Stand Still
DR9       -2.82 дБ   -14.07 дБ      6:39 03-Without You
DR9       -2.95 дБ   -14.61 дБ      7:40 04-Deacon Blues
DR10      -2.86 дБ   -14.87 дБ      4:18 05-Swarthy
DR9       -3.02 дБ   -15.54 дБ      7:39 06-Earn Enough For Us
DR11      -3.05 дБ   -15.92 дБ      6:14 07-Blue Dogs Pedestrian Sequester
DR11      -3.23 дБ   -16.23 дБ      6:04 08-Eva
DR11      -2.94 дБ   -14.81 дБ      6:54 09-Stacey's Contusion
--------------------------------------------------------------------------------

Количество треков: 9
Реальные значения DR: DR10

Частота:  2822400 Гц / Частота PCM: 352800 Гц
Каналов:  2
Разрядность:   1
Битрейт:  5645 кбит/с
Кодек:   DSD64
================================================================================
No seeders - write personal message to M0p94ok. Any questions - support@pro-jazz.com.
Нет сидеров - пишите в личку M0p94ok. Есть вопросы - support@pro-jazz.com
19:14
165
Нет комментариев. Ваш будет первым!