Поиск

2019 Walt Weiskopf - European Quartet Worldwide {amm} [24-96]

2019 Walt Weiskopf - European Quartet Worldwide {amm} [24-96]
Стили:
Дата записи диска:
29 января 2019
Место записи:
Millfactory
Дата издания диска:
3 мая 2019
Номер по каталогу:
Orenda0065
Носитель:
WEB
Формат:
PCM
Тип рипа:
tracks+.cue
Контейнер:
APE (*.ape)
Количество каналов:
2.0
Разрядность/ЧД:
24/96
Битрейт аудио:
lossless
Время звучания:
00:51:57
Наличие сканов:
web
Страна-производитель диска (релиза):
USA
Релизёр (источник):
M0p94ok
Лог проверки качества
foobar2000 1.3.16 / Dynamic Range Meter 1.1.1
log date: 2019-05-03 14:41:13

--------------------------------------------------------------------------------
Analyzed: Walt Weiskopf / European Quartet Worldwide (feat. Carl Winther, Andreas Lang, Anders Mogensen)
--------------------------------------------------------------------------------

DR         Peak         RMS     Duration Track
--------------------------------------------------------------------------------
DR11      -0.55 dB   -12.90 dB      5:45 01-Entebbe (feat. Carl Winther, Andreas Lang, Anders Mogensen)
DR12      -0.46 dB   -14.45 dB      5:37 02-Back in Japan (feat. Carl Winther, Andreas Lang, Anders Mogensen)
DR12      -1.55 dB   -17.66 dB      5:22 03-Soultrane (feat. Carl Winther, Andreas Lang, Anders Mogensen)
DR12      -0.46 dB   -14.49 dB      4:15 04-Russian Roulette (feat. Carl Winther, Andreas Lang, Anders Mogensen)
DR13      -1.39 dB   -16.59 dB      4:28 05-Marcie by Moonlight (feat. Carl Winther, Andreas Lang, Anders Mogensen)
DR12      -0.77 dB   -14.89 dB      4:51 06-Back in Brazil (feat. Carl Winther, Andreas Lang, Anders Mogensen)
DR12      -1.96 dB   -16.85 dB      4:44 07-Oceans (feat. Carl Winther, Andreas Lang, Anders Mogensen)
DR12      -0.56 dB   -14.79 dB      5:06 08-The Pawnbroker (feat. Carl Winther, Andreas Lang, Anders Mogensen)
DR12      -1.12 dB   -16.50 dB      6:48 09-Scottish Folk Song (feat. Carl Winther, Andreas Lang, Anders Mogensen)
DR11      -0.30 dB   -12.90 dB      5:08 10-Coat of Arms (feat. Carl Winther, Andreas Lang, Anders Mogensen)
--------------------------------------------------------------------------------

Number of tracks:  10
Official DR value: DR12

Samplerate:        96000 Hz
Channels:          2
Bits per sample:   24
Bitrate:           2844 kbps
Codec:             FLAC
================================================================================
No seeders - write personal message to M0p94ok. Any questions - support@pro-jazz.com.
Нет сидеров - пишите в личку M0p94ok. Есть вопросы - support@pro-jazz.com
13:34
137
Нет комментариев. Ваш будет первым!