Поиск

1973 Donald Byrd - Black Byrd (2019) {Blue Note, Vocalion} [DST64]

1973 Donald Byrd - Black Byrd (2019) {Blue Note, Vocalion} [DST64]
Стили:
Дата записи диска:
3 апреля - 4 апреля 1972
Место записи:
The Sound Factory, Hollywood
Издатель (лейбл):
Битрейт аудио:
lossless

Треклист:

1.    Flight Time    8:27
2.    Black Byrd    8:00
3.    Love's So Far Away    6:00
4.    Mr. Thomas    5:15
5.    Sky High    5:59
6.    Slop Jar Blues    6:00
7.    Where Are We Going?    4:40

Доп. инфо:

Формат записи/Источник записи: [SACD-R][OF]
Наличие водяных знаков: Нет
Издание: Quadraphonic, Reissue, Remastered
Год издания/переиздания диска: 1973 / 2019
Жанр: Jazz, Funk / Soul
Издатель (лейбл): Blue Note Records / Vocalion
Продолжительность: 43:07 / 43:11
Наличие сканов в содержимом раздачи: Нет

Contains the complete original stereo and quadraphonic mix of the album "Black Byrd" BN-LA047-F / BN-DA047-H (1973).

Лог проверки качества
foobar2000 1.5.2 / Dynamic Range Meter 1.1.1
log date: 2020-10-18 13:27:16

--------------------------------------------------------------------------------
Analyzed: Donald Byrd / Black Byrd
--------------------------------------------------------------------------------

DR         Peak         RMS     Duration Track
--------------------------------------------------------------------------------
DR20      -7.91 dB   -25.11 dB      8:37 01-Flight Time
DR8       -7.36 dB   -24.26 dB      7:11 02-Black Byrd
DR8       -7.15 dB   -24.59 dB      6:02 03-Loves So Far Away
DR9       -7.22 dB   -24.51 dB      5:01 04-Mr Thomas
DR7       -7.01 dB   -23.29 dB      6:06 05-Sky High
DR9       -7.25 dB   -24.49 dB      5:36 06-Slop Jar Blues
DR8       -8.15 dB   -25.04 dB      4:39 07-Where Are We Going
--------------------------------------------------------------------------------

Number of tracks:  7
Official DR value: DR10

Samplerate:        2822400 Hz / PCM Samplerate: 176400 Hz
Channels:          6
Bits per sample:   1
Bitrate:           16934 kbps
Codec:             DST64
================================================================================

--------------------------------------------------------------------------------
Analyzed: Donald Byrd / Black Byrd
--------------------------------------------------------------------------------

DR         Peak         RMS     Duration Track
--------------------------------------------------------------------------------
DR12      -7.15 dB   -21.36 dB      8:32 01-Flight Time
DR12      -6.25 dB   -20.94 dB      7:19 02-Black Byrd
DR13      -7.00 dB   -22.01 dB      6:00 03-Loves So Far Away
DR12      -7.14 dB   -21.93 dB      5:03 04-Mr Thomas
DR13      -6.50 dB   -21.06 dB      5:57 05-Sky High
DR12      -6.46 dB   -20.94 dB      5:38 06-Slop Jar Blues
DR13      -6.80 dB   -21.41 dB      4:38 07-Where Are We Going
--------------------------------------------------------------------------------

Number of tracks:  7
Official DR value: DR12

Samplerate:        2822400 Hz / PCM Samplerate: 176400 Hz
Channels:          2
Bits per sample:   1
Bitrate:           5645 kbps
Codec:             DST64
================================================================================
Приватный:
Нет (DHT включён)
Размер:
1.94 Гб (2,080,088,250 байт) » файлов: 3
Участники:
0 раздают, 0 качают (0 участников всего)
Внешние участники:
8 раздают, 2 качают (10 участников всего) [ Обновить ]
No seeders - write personal message to M0p94ok. Нет сидеров - пишите в личку M0p94ok.
14:33
148
Нет комментариев. Ваш будет первым!