Вы используете незарегистрированную версию компонента "Вкладки"!

Поиск

1991 Hassan Hakmoun and Adam Rudolph feat. Don Cherry - Gift Of The Gnawa {Flying Fish} [CD]

1991 Hassan Hakmoun and Adam Rudolph feat. Don Cherry - Gift Of The Gnawa {Flying Fish} [CD]
Место записи:
Bisi Studios, New York, NY, USA
Дата издания диска:
22 октября 1991
Треклист:

1 Saba Atu Rijal
2 Marahaba
3 Suwaye
4 Ma'bud Allah
5 Larmame
6 Balili

Год издания диска: 1991
Издатель (лейбл): Flying Fish
Номер по каталогу: FF 70571
Аудиокодек: FLAC (*.flac)
Тип рипа: tracks+.cue
Битрейт аудио: lossless
Продолжительность: 53`41
Источник (релизер): what.cd
Наличие сканов в содержимом раздачи: неa

 
Лог создания рипа
Exact Audio Copy V0.99 prebeta 5 from 4. May 2009
EAC extraction logfile from 19. May 2011, 16:17
Hassan Hakmoun and Adam Rudolph feat. Don Cherry / Gift of the Gnawa
Used drive  : HL-DT-STDVD-RAM GH22NP20   Adapter: 0  ID: 1
Read mode               : Secure
Utilize accurate stream : Yes
Defeat audio cache      : Yes
Make use of C2 pointers : No
Read offset correction                      : 102
Overread into Lead-In and Lead-Out          : No
Fill up missing offset samples with silence : Yes
Delete leading and trailing silent blocks   : No
Null samples used in CRC calculations       : Yes
Used interface                              : Native Win32 interface for Win NT & 2000
Gap handling                                : Appended to previous track
Used output format              : User Defined Encoder
Selected bitrate                : 768 kBit/s
Quality                         : High
Add ID3 tag                     : No
Command line compressor         : C:\Program Files\Exact Audio Copy\Flac\flac.exe
Additional command line options : -V -8 -T "artist=%a" -T "title=%t" -T "album=%g" -T "date=%y" -T "tracknumber=%n" -T "genre=%m" %s
TOC of the extracted CD
     Track |   Start  |  Length  | Start sector | End sector
    ---------------------------------------------------------
        1  |  0:00.00 |  6:39.58 |         0    |    29982
        2  |  6:39.58 |  8:15.61 |     29983    |    67168
        3  | 14:55.44 | 10:25.42 |     67169    |   114085
        4  | 25:21.11 |  6:00.29 |    114086    |   141114
        5  | 31:21.40 |  7:09.00 |    141115    |   173289
        6  | 38:30.40 | 15:10.62 |    173290    |   241601
Track  1
     Filename H:\Flac\Reggae\Hassan Hakmoun and Adam Rudolph feat. Don Cherry - Gift Of The Gnawa\(01) Saba Atu Rijal - Hassan Hakmoun and Adam Rudolph feat. Don Cherry-1991.wav
     Pre-gap length  0:00:02.00
     Peak level 92.5 %
     Track quality 99.9 %
     Test CRC D58C1656
     Copy CRC D58C1656
     Track not present in AccurateRip database
     Copy OK
Track  2
     Filename H:\Flac\Reggae\Hassan Hakmoun and Adam Rudolph feat. Don Cherry - Gift Of The Gnawa\(02) Marahhaba - Hassan Hakmoun and Adam Rudolph feat. Don Cherry-1991.wav
     Peak level 85.9 %
     Track quality 100.0 %
     Test CRC 15D88350
     Copy CRC 15D88350
     Track not present in AccurateRip database
     Copy OK
Track  3
     Filename H:\Flac\Reggae\Hassan Hakmoun and Adam Rudolph feat. Don Cherry - Gift Of The Gnawa\(03) Suwaye - Hassan Hakmoun and Adam Rudolph feat. Don Cherry-1991.wav
     Peak level 98.4 %
     Track quality 100.0 %
     Test CRC 3683D5C2
     Copy CRC 3683D5C2
     Track not present in AccurateRip database
     Copy OK
Track  4
     Filename H:\Flac\Reggae\Hassan Hakmoun and Adam Rudolph feat. Don Cherry - Gift Of The Gnawa\(04) MaґBud Allah - Hassan Hakmoun and Adam Rudolph feat. Don Cherry-1991.wav
     Peak level 98.6 %
     Track quality 100.0 %
     Test CRC 923CBDFA
     Copy CRC 923CBDFA
     Track not present in AccurateRip database
     Copy OK
Track  5
     Filename H:\Flac\Reggae\Hassan Hakmoun and Adam Rudolph feat. Don Cherry - Gift Of The Gnawa\(05) Larmame - Hassan Hakmoun and Adam Rudolph feat. Don Cherry-1991.wav
     Peak level 72.7 %
     Track quality 99.9 %
     Test CRC F04ADCD9
     Copy CRC F04ADCD9
     Track not present in AccurateRip database
     Copy OK
Track  6
     Filename H:\Flac\Reggae\Hassan Hakmoun and Adam Rudolph feat. Don Cherry - Gift Of The Gnawa\(06) Balili - Hassan Hakmoun and Adam Rudolph feat. Don Cherry-1991.wav
     Peak level 99.3 %
     Track quality 100.0 %
     Test CRC 6FC4F855
     Copy CRC 6FC4F855
     Track not present in AccurateRip database
     Copy OK
None of the tracks are present in the AccurateRip database
No errors occurred
End of status report
 
 
Содержание индексной карты (.CUE)
REM GENRE Afro
REM DATE 1991
REM DISCID 460C9506
REM COMMENT "ExactAudioCopy v0.99pb5"
FILE "(01) Saba Atu Rijal - Hassan Hakmoun and Adam Rudolph feat. Don Cherry-1991.wav" WAVE
  TRACK 01 AUDIO
    INDEX 01 00:00:00
FILE "(02) Marahhaba - Hassan Hakmoun and Adam Rudolph feat. Don Cherry-1991.wav" WAVE
  TRACK 02 AUDIO
    INDEX 01 00:00:00
FILE "(03) Suwaye - Hassan Hakmoun and Adam Rudolph feat. Don Cherry-1991.wav" WAVE
  TRACK 03 AUDIO
    INDEX 01 00:00:00
FILE "(04) MaґBud Allah - Hassan Hakmoun and Adam Rudolph feat. Don Cherry-1991.wav" WAVE
  TRACK 04 AUDIO
    INDEX 01 00:00:00
FILE "(05) Larmame - Hassan Hakmoun and Adam Rudolph feat. Don Cherry-1991.wav" WAVE
  TRACK 05 AUDIO
    INDEX 01 00:00:00
FILE "(06) Balili - Hassan Hakmoun and Adam Rudolph feat. Don Cherry-1991.wav" WAVE
  TRACK 06 AUDIO
    INDEX 01 00:00:00
Состав:
  • Harry Andronis    Engineer, Mixing
  • Martin Bisi    Engineer
  • Don Cherry    Trumpet (Pocket)
  • Ed Blackwell    Trumpet (Pocket)
  • Hassan Hakmoun    Composer, Qarqaba, Sintir, Vocals
  • Richard Horowitz    Ney
  • Adam Rudolph    Bendir, Bendire, Congas, Percussion, Producer, Tabla
  • Roger Seibel    Digital Mastering
Any questions - support@pro-jazz.com. Есть вопросы - support@pro-jazz.com
23:48
347
Нет комментариев. Ваш будет первым!