Вы используете незарегистрированную версию компонента "Вкладки"!

Поиск

(Latin Jazz, Bossa Nova) Antonio Carlos Jobim — Terra Brasilis — 1980, FLAC (tracks+.cue), lossless

Треклист:
Antonio Carlos Jobim — Terra Brasilis
Жанр: Latin Jazz, Bossa Nova
Год издания диска: 1980
Издатель (лейбл): Warner Bros. Masters
Номер по каталогу: 7599-23409-9
Аудиокодек: FLAC (*.flac)
Тип рипа: tracks+.cue
Битрейт аудио: lossless
Продолжительность: 71:20
Риппер/релизер: Sarchiapone/tiburon
Наличие сканов в содержимом раздачи: да
Треклист:
01. Dreamer (Vivo Sonhando) (3:07)
02. Canta Mais (Sing Once More) (4:34)
03. Olha Maria (Amparo) (4:07)
04. One Note Samba (2:21)
05. Dindi (4:19)
06. Quiet Nights Of Quiet Stars (Corcovado) (3:30)
07. Marina (2:57)
08. Desafinado (Off Key) (3:28)
09. Voce Vai Ver (You'll See) (2:59)
10. Estrada Do Sol (Road To The Sun) (2:08)
11. The Girl Of Ipanema (4:50)
12. Double Rainbow (4:07)
13. Triste (3:07)
14. Wave (3:41)
15. Someone To Light Up My Life (3:07)
16. Falando De Amor (Speaking Of Love) (3:43)
17. Two Kites (4:40)
18. Modinha (Serenade) (3:40)
19. Song Of The Sabia (Sabia) (4:07)
20. This Happy Madness (Estrada Branca) (2:49)
 
Лог создания рипа
Exact Audio Copy V0.99 prebeta 4 from 23. January 2008
EAC extraction logfile from 11. October 2008, 15:17
Antonio Carlos Jobim / Terra Brasilis
Used drive : PLEXTOR CD-R PREMIUM2 Adapter: 1 ID: 1
Read mode : Secure
Utilize accurate stream : Yes
Defeat audio cache : Yes
Make use of C2 pointers : No
Read offset correction : 30
Overread into Lead-In and Lead-Out : No
Fill up missing offset samples with silence : Yes
Delete leading and trailing silent blocks : No
Null samples used in CRC calculations : Yes
Used interface : Installed external ASPI interface
Gap handling : Appended to previous track
Used output format : User Defined Encoder
Selected bitrate : 32 kBit/s
Quality : High
Add ID3 tag : No
Command line compressor : C:\Programmi\FLAC\flac.exe
Additional command line options : -8 -V -T "ARTIST=%a" -T "TITLE=%t" -T "ALBUM=%g" -T "DATE=%y" -T "TRACKNUMBER=%n" -T "GENRE=%m" -T "COMMENT=EAC FLAC -8" %s
TOC of the extracted CD
Track | Start | Length | Start sector | End sector
---------------------------------------------------------
1 | 0:00.00 | 3:06.45 | 0 | 13994
2 | 3:06.45 | 4:34.17 | 13995 | 34561
3 | 7:40.62 | 4:07.08 | 34562 | 53094
4 | 11:47.70 | 2:20.62 | 53095 | 63656
5 | 14:08.57 | 4:18.53 | 63657 | 83059
6 | 18:27.35 | 3:29.60 | 83060 | 98794
7 | 21:57.20 | 2:57.22 | 98795 | 112091
8 | 24:54.42 | 3:28.10 | 112092 | 127701
9 | 28:22.52 | 2:58.55 | 127702 | 141106
10 | 31:21.32 | 2:07.55 | 141107 | 150686
11 | 33:29.12 | 4:50.30 | 150687 | 172466
12 | 38:19.42 | 4:06.50 | 172467 | 190966
13 | 42:26.17 | 3:07.18 | 190967 | 205009
14 | 45:33.35 | 3:40.57 | 205010 | 221566
15 | 49:14.17 | 3:07.28 | 221567 | 235619
16 | 52:21.45 | 3:43.17 | 235620 | 252361
17 | 56:04.62 | 4:39.38 | 252362 | 273324
18 | 60:44.25 | 3:39.50 | 273325 | 289799
19 | 64:24.00 | 4:06.70 | 289800 | 308319
20 | 68:30.70 | 2:49.17 | 308320 | 321011
Track 1
Filename C:\My Rip\01 - Dreamer (Vivo Sonhando).wav
Pre-gap length 0:00:02.00
Peak level 98.8 %
Track quality 99.9 %
Test CRC D4E4AB45
Copy CRC D4E4AB45
Accurately ripped (confidence 2) [264E4493]
Copy OK
Track 2
Filename C:\My Rip\02 - Canta Mais (Sing Once More).wav
Pre-gap length 0:00:01.06
Peak level 96.4 %
Track quality 100.0 %
Test CRC 764ABF4F
Copy CRC 764ABF4F
Accurately ripped (confidence 2) [8EA329E4]
Copy OK
Track 3
Filename C:\My Rip\03 - Olha Maria (Amparo).wav
Pre-gap length 0:00:02.00
Peak level 98.8 %
Track quality 100.0 %
Test CRC A690CFCD
Copy CRC A690CFCD
Accurately ripped (confidence 2) [F8D42AA6]
Copy OK
Track 4
Filename C:\My Rip\04 - One Note Samba.wav
Pre-gap length 0:00:02.50
Peak level 98.8 %
Track quality 100.0 %
Test CRC 427BAEC5
Copy CRC 427BAEC5
Accurately ripped (confidence 2) [0E1464DB]
Copy OK
Track 5
Filename C:\My Rip\05 - Dindi.wav
Pre-gap length 0:00:03.16
Peak level 98.8 %
Track quality 100.0 %
Test CRC 6A09FDFF
Copy CRC 6A09FDFF
Accurately ripped (confidence 2) [8746A816]
Copy OK
Track 6
Filename C:\My Rip\06 - Quiet Nights Of Quiet Stars (Corcovado).wav
Pre-gap length 0:00:03.90
Peak level 98.8 %
Track quality 100.0 %
Test CRC EFF64675
Copy CRC EFF64675
Accurately ripped (confidence 2) [F73C454C]
Copy OK
Track 7
Filename C:\My Rip\07 - Marina.wav
Pre-gap length 0:00:03.50
Peak level 94.2 %
Track quality 99.9 %
Test CRC 142B9C8E
Copy CRC 142B9C8E
Accurately ripped (confidence 2) [D948ECD7]
Copy OK
Track 8
Filename C:\My Rip\08 - Desafinado (Off Key).wav
Pre-gap length 0:00:03.96
Peak level 98.8 %
Track quality 100.0 %
Test CRC 70219655
Copy CRC 70219655
Accurately ripped (confidence 2) [CEDC4B3A]
Copy OK
Track 9
Filename C:\My Rip\09 - Voce Vai Ver (You'll See).wav
Pre-gap length 0:00:04.16
Peak level 98.8 %
Track quality 100.0 %
Test CRC 4DA6EC42
Copy CRC 4DA6EC42
Accurately ripped (confidence 2) [8FE41D7A]
Copy OK
Track 10
Filename C:\My Rip\10 - Estrada Do Sol (Road To The Sun).wav
Pre-gap length 0:00:03.46
Peak level 98.8 %
Track quality 100.0 %
Test CRC A1555C37
Copy CRC A1555C37
Accurately ripped (confidence 2) [B8940D87]
Copy OK
Track 11
Filename C:\My Rip\11 - The Girl Of Ipanema.wav
Pre-gap length 0:00:03.62
Peak level 98.8 %
Track quality 100.0 %
Test CRC 35A05A06
Copy CRC 35A05A06
Accurately ripped (confidence 2) [BCCEDD70]
Copy OK
Track 12
Filename C:\My Rip\12 - Double Rainbow.wav
Pre-gap length 0:00:03.49
Peak level 98.8 %
Track quality 100.0 %
Test CRC 3DCA41AB
Copy CRC 3DCA41AB
Accurately ripped (confidence 2) [7DF2F296]
Copy OK
Track 13
Filename C:\My Rip\13 - Triste.wav
Pre-gap length 0:00:02.86
Peak level 98.8 %
Track quality 100.0 %
Test CRC AC4271F2
Copy CRC AC4271F2
Accurately ripped (confidence 2) [84BD56D1]
Copy OK
Track 14
Filename C:\My Rip\14 - Wave.wav
Pre-gap length 0:00:02.44
Peak level 98.8 %
Track quality 100.0 %
Test CRC 7148EC71
Copy CRC 7148EC71
Accurately ripped (confidence 2) [319FEA95]
Copy OK
Track 15
Filename C:\My Rip\15 - Someone To Light Up My Life.wav
Pre-gap length 0:00:01.69
Peak level 88.1 %
Track quality 100.0 %
Test CRC A08DADE1
Copy CRC A08DADE1
Accurately ripped (confidence 2) [8076868D]
Copy OK
Track 16
Filename C:\My Rip\16 - Falando De Amor (Speaking Of Love).wav
Pre-gap length 0:00:03.24
Peak level 96.4 %
Track quality 100.0 %
Test CRC CF138B3C
Copy CRC CF138B3C
Accurately ripped (confidence 2) [1EF28994]
Copy OK
Track 17
Filename C:\My Rip\17 - Two Kites.wav
Pre-gap length 0:00:03.02
Peak level 88.1 %
Track quality 100.0 %
Test CRC B823DC51
Copy CRC B823DC51
Accurately ripped (confidence 2) [9BCDEF23]
Copy OK
Track 18
Filename C:\My Rip\18 - Modinha (Serenade).wav
Pre-gap length 0:00:03.24
Peak level 93.6 %
Track quality 100.0 %
Test CRC 9F787DA5
Copy CRC 9F787DA5
Accurately ripped (confidence 2) [3BB3CE66]
Copy OK
Track 19
Filename C:\My Rip\19 - Song Of The Sabia (Sabia).wav
Pre-gap length 0:00:03.60
Peak level 80.7 %
Track quality 100.0 %
Test CRC 230E5A95
Copy CRC 230E5A95
Accurately ripped (confidence 2) [96BF9013]
Copy OK
Track 20
Filename C:\My Rip\20 - This Happy Madness (Estrada Branca).wav
Pre-gap length 0:00:02.46
Peak level 76.9 %
Track quality 100.0 %
Test CRC 9737F1CB
Copy CRC 9737F1CB
Track not present in AccurateRip database
Copy OK
19 track(s) accurately ripped
1 track(s) not present in the AccurateRip database
Some tracks could not be verified as accurate
No errors occurred
End of status report
 
Содержание индексной карты (.CUE)
REM GENRE Latin
REM DATE 1980
REM DISCID 1D10B814
REM COMMENT "ExactAudioCopy v0.99pb4"
PERFORMER "Antonio Carlos Jobim"
TITLE "Terra Brasilis"
FILE "01 - Dreamer (Vivo Sonhando).flac" WAVE
TRACK 01 AUDIO
TITLE "Dreamer (Vivo Sonhando)"
PERFORMER "Antonio Carlos Jobim"
INDEX 01 00:00:00
TRACK 02 AUDIO
TITLE "Canta Mais (Sing Once More)"
PERFORMER "Antonio Carlos Jobim"
INDEX 00 03:05:40
FILE "02 - Canta Mais (Sing Once More).flac" WAVE
INDEX 01 00:00:00
TRACK 03 AUDIO
TITLE "Olha Maria (Amparo)"
PERFORMER "Antonio Carlos Jobim"
INDEX 00 04:32:17
FILE "03 - Olha Maria (Amparo).flac" WAVE
INDEX 01 00:00:00
TRACK 04 AUDIO
TITLE "One Note Samba"
PERFORMER "Antonio Carlos Jobim"
INDEX 00 04:04:45
FILE "04 - One Note Samba.flac" WAVE
INDEX 01 00:00:00
TRACK 05 AUDIO
TITLE "Dindi"
PERFORMER "Antonio Carlos Jobim"
INDEX 00 02:17:50
FILE "05 - Dindi.flac" WAVE
INDEX 01 00:00:00
TRACK 06 AUDIO
TITLE "Quiet Nights Of Quiet Stars (Corcovado)"
PERFORMER "Antonio Carlos Jobim"
INDEX 00 04:14:60
FILE "06 - Quiet Nights Of Quiet Stars (Corcovado).flac" WAVE
INDEX 01 00:00:00
TRACK 07 AUDIO
TITLE "Marina"
PERFORMER "Antonio Carlos Jobim"
INDEX 00 03:26:22
FILE "07 - Marina.flac" WAVE
INDEX 01 00:00:00
TRACK 08 AUDIO
TITLE "Desafinado (Off Key)"
PERFORMER "Antonio Carlos Jobim"
INDEX 00 02:53:25
FILE "08 - Desafinado (Off Key).flac" WAVE
INDEX 01 00:00:00
TRACK 09 AUDIO
TITLE "Voce Vai Ver (You'll See)"
PERFORMER "Antonio Carlos Jobim"
INDEX 00 03:23:73
FILE "09 - Voce Vai Ver (You'll See).flac" WAVE
INDEX 01 00:00:00
TRACK 10 AUDIO
TITLE "Estrada Do Sol (Road To The Sun)"
PERFORMER "Antonio Carlos Jobim"
INDEX 00 02:55:20
FILE "10 - Estrada Do Sol (Road To The Sun).flac" WAVE
INDEX 01 00:00:00
TRACK 11 AUDIO
TITLE "The Girl Of Ipanema"
PERFORMER "Antonio Carlos Jobim"
INDEX 00 02:04:08
FILE "11 - The Girl Of Ipanema.flac" WAVE
INDEX 01 00:00:00
TRACK 12 AUDIO
TITLE "Double Rainbow"
PERFORMER "Antonio Carlos Jobim"
INDEX 00 04:46:68
FILE "12 - Double Rainbow.flac" WAVE
INDEX 01 00:00:00
TRACK 13 AUDIO
TITLE "Triste"
PERFORMER "Antonio Carlos Jobim"
INDEX 00 04:03:60
FILE "13 - Triste.flac" WAVE
INDEX 01 00:00:00
TRACK 14 AUDIO
TITLE "Wave"
PERFORMER "Antonio Carlos Jobim"
INDEX 00 03:04:60
FILE "14 - Wave.flac" WAVE
INDEX 01 00:00:00
TRACK 15 AUDIO
TITLE "Someone To Light Up My Life"
PERFORMER "Antonio Carlos Jobim"
INDEX 00 03:39:05
FILE "15 - Someone To Light Up My Life.flac" WAVE
INDEX 01 00:00:00
TRACK 16 AUDIO
TITLE "Falando De Amor (Speaking Of Love)"
PERFORMER "Antonio Carlos Jobim"
INDEX 00 03:04:10
FILE "16 - Falando De Amor (Speaking Of Love).flac" WAVE
INDEX 01 00:00:00
TRACK 17 AUDIO
TITLE "Two Kites"
PERFORMER "Antonio Carlos Jobim"
INDEX 00 03:40:15
FILE "17 - Two Kites.flac" WAVE
INDEX 01 00:00:00
TRACK 18 AUDIO
TITLE "Modinha (Serenade)"
PERFORMER "Antonio Carlos Jobim"
INDEX 00 04:36:20
FILE "18 - Modinha (Serenade).flac" WAVE
INDEX 01 00:00:00
TRACK 19 AUDIO
TITLE "Song Of The Sabia (Sabia)"
PERFORMER "Antonio Carlos Jobim"
INDEX 00 03:36:05
FILE "19 - Song Of The Sabia (Sabia).flac" WAVE
INDEX 01 00:00:00
TRACK 20 AUDIO
TITLE "This Happy Madness (Estrada Branca)"
PERFORMER "Antonio Carlos Jobim"
INDEX 00 04:04:35
FILE "20 - This Happy Madness (Estrada Branca).flac" WAVE
INDEX 01 00:00:00
 
CUETools log
[CUETools log; Date: 15.08.2011 23:01:24; Version: 2.0.9]
[CTDB TOCID: TMMXM61644Xvs_9VKrpkxOtBbX0-] disk not present in database.
[AccurateRip ID: 00331ad2-02ed4e70-1d10b814] found.
Track [ CRC ] Status
01 [264e4493] (11/13) Accurately ripped
02 [8ea329e4] (11/13) Accurately ripped
03 [f8d42aa6] (11/13) Accurately ripped
04 [0e1464db] (11/13) Accurately ripped
05 [8746a816] (11/13) Accurately ripped
06 [f73c454c] (11/13) Accurately ripped
07 [d948ecd7] (11/13) Accurately ripped
08 [cedc4b3a] (11/13) Accurately ripped
09 [8fe41d7a] (11/13) Accurately ripped
10 [b8940d87] (11/13) Accurately ripped
11 [bccedd70] (11/13) Accurately ripped
12 [7df2f296] (11/13) Accurately ripped
13 [84bd56d1] (11/13) Accurately ripped
14 [319fea95] (11/13) Accurately ripped
15 [8076868d] (11/13) Accurately ripped
16 [1ef28994] (11/13) Accurately ripped
17 [9bcdef23] (11/13) Accurately ripped
18 [3bb3ce66] (11/13) Accurately ripped
19 [96bf9013] (11/13) Accurately ripped
20 [73fabdfc] (10/12) Accurately ripped
Track Peak [ CRC32 ] [W/O NULL] [ LOG ]
-- 98,8 [F2DF3866] [C9571E14]
01 98,8 [D4E4AB45] [B44F3358] CRC32
02 96,4 [764ABF4F] [C3E898FF] CRC32
03 98,8 [A690CFCD] [FA4DB37C] CRC32
04 98,8 [427BAEC5] [32A6E355] CRC32
05 98,8 [6A09FDFF] [48E6BC31] CRC32
06 98,8 [EFF64675] [BFDDB8D5] CRC32
07 94,2 [142B9C8E] [C8E60E55] CRC32
08 98,8 [70219655] [ED24FBA5] CRC32
09 98,8 [4DA6EC42] [4DBD61F7] CRC32
10 98,8 [A1555C37] [CFF1F658] CRC32
11 98,8 [35A05A06] [3E6F56FB] CRC32
12 98,8 [3DCA41AB] [DEA1295F] CRC32
13 98,8 [AC4271F2] [C034AB8D] CRC32
14 98,8 [7148EC71] [32FE330A] CRC32
15 88,1 [A08DADE1] [BB6D2900] CRC32
16 96,4 [CF138B3C] [5C774884] CRC32
17 88,1 [B823DC51] [66DFC015] CRC32
18 93,6 [9F787DA5] [8299F220] CRC32
19 80,6 [230E5A95] [02A204A4] CRC32
20 76,9 [9737F1CB] [2BDE2DD7] CRC32
 
Состав
Antonio Carlos Jobim - vocals, keyboards
Oscar Castro-Neves - guitar
Bucky Pizzarelli - guitar
Vinnie Bell - guitar
Bob Cranshaw - bass
Mike Moore - bass
Pascoal De Souza Meirelles - drums
Grady Tate - drums
Rubens Bassini - percussion
Orchestra arranged & conducted by Claus Ogerman
Any questions -> support@pro-jazz.com. По всем вопросам пишите -> support@pro-jazz.com
23:49
313
Нет комментариев. Ваш будет первым!