Поиск

(Brazilian Jazz) Milton Nascimento - Milton - 2000 [Verve], FLAC (tracks+.cue), lossless

Треклист:
Milton Nascimento / Milton
Жанр: Brazilian Jazz
Год издания диска: 2000
Издатель (лейбл): Verve
Номер по каталогу: 314 543 485-2
Страна: Rio De Janeiro, Brazil
Аудиокодек: FLAC (*.flac)
Тип рипа: tracks+.cue
Битрейт аудио: lossless
Продолжительность: 00:43:19
Источник (релизер):mishka1981
Наличие сканов в содержимом раздачи: да
Треклист:
01. Raca [03:38]
02. Fairy Tale Song (Cade) [04:13]
03. Francisco [04:30]
04. Nothing Will Be As It Was (Nada Sera Como Antes) [03:53]
05. Cravo e Canela (Clove and Cinnamon) [03:48]
06. The Call (Chamada) [05:50]
07. One Coin (Tostao) [04:31]
08. Saidas e Bandeiras (Exits and Flags) [04:47]
09. Os Povos (The People) [08:06]
 
Лог создания рипа
Exact Audio Copy V1.0 beta 1 from 15. November 2010
EAC extraction logfile from 10. August 2011, 0:51
Milton Nascimento / Milton (1976)
Used drive : TSSTcorpCDDVDW TS-L633A Adapter: 3 ID: 0
Read mode : Secure
Utilize accurate stream : Yes
Defeat audio cache : Yes
Make use of C2 pointers : No
Read offset correction : 6
Overread into Lead-In and Lead-Out : No
Fill up missing offset samples with silence : Yes
Delete leading and trailing silent blocks : No
Null samples used in CRC calculations : Yes
Used interface : Installed external ASPI interface
Gap handling : Appended to previous track
Used output format : User Defined Encoder
Selected bitrate : 896 kBit/s
Quality : High
Add ID3 tag : No
Command line compressor : C:\Program Files\Exact Audio Copy\FLAC\FLAC.EXE
Additional command line options : -8 -V -T "ARTIST=%a" -T "TITLE=%t" -T "ALBUM=%g" -T "DATE=%y" -T "TRACKNUMBER=%n" -T "TOTALTRACKS=%x" -T "GENRE=%m" -T "ALBUMARTIST=%v" -T "ALBUM ARTIST=%v" -T "COMMENT=EAC Secure Mode, Test & Copy, AccurateRip, FLAC -8" %s
TOC of the extracted CD
Track | Start | Length | Start sector | End sector
---------------------------------------------------------
1 | 0:00.00 | 3:38.05 | 0 | 16354
2 | 3:38.05 | 4:13.02 | 16355 | 35331
3 | 7:51.07 | 4:30.25 | 35332 | 55606
4 | 12:21.32 | 3:53.48 | 55607 | 73129
5 | 16:15.05 | 3:48.70 | 73130 | 90299
6 | 20:04.00 | 5:50.42 | 90300 | 116591
7 | 25:54.42 | 4:31.28 | 116592 | 136944
8 | 30:25.70 | 4:47.02 | 136945 | 158471
9 | 35:12.72 | 8:06.08 | 158472 | 194929
Track 1
Filename C:\MY RIPS\01 - Raça.wav
Pre-gap length 0:00:02.00
Peak level 100.0 %
Extraction speed 1.1 X
Track quality 100.0 %
Test CRC 05A2C830
Copy CRC 05A2C830
Accurately ripped (confidence 2) [D3956D7F]
Copy OK
Track 2
Filename C:\MY RIPS\02 - Fairy Tale Song (Cadê).wav
Pre-gap length 0:00:02.18
Peak level 100.0 %
Extraction speed 1.1 X
Track quality 99.9 %
Test CRC CCD28AF6
Copy CRC CCD28AF6
Accurately ripped (confidence 2) [AE4AA4CD]
Copy OK
Track 3
Filename C:\MY RIPS\03 - Francisco.wav
Pre-gap length 0:00:01.30
Peak level 70.4 %
Extraction speed 1.4 X
Track quality 100.0 %
Test CRC EEACBCE5
Copy CRC EEACBCE5
Accurately ripped (confidence 2) [79ACF036]
Copy OK
Track 4
Filename C:\MY RIPS\04 - Nothing Will Be As It Was (Nada Será Como Antes).wav
Pre-gap length 0:00:02.42
Peak level 100.0 %
Extraction speed 1.5 X
Track quality 100.0 %
Test CRC 8A13D311
Copy CRC 8A13D311
Accurately ripped (confidence 2) [55A54F99]
Copy OK
Track 5
Filename C:\MY RIPS\05 - Cravo e Canela (Clove and Cinnamon).wav
Peak level 100.0 %
Extraction speed 1.6 X
Track quality 100.0 %
Test CRC 20520577
Copy CRC 20520577
Accurately ripped (confidence 2) [7812459A]
Copy OK
Track 6
Filename C:\MY RIPS\06 - The Call (Chamada).wav
Pre-gap length 0:00:04.45
Peak level 79.9 %
Extraction speed 1.8 X
Track quality 100.0 %
Test CRC 96437E67
Copy CRC 96437E67
Accurately ripped (confidence 2) [425DE411]
Copy OK
Track 7
Filename C:\MY RIPS\07 - One Coin (Tostão).wav
Pre-gap length 0:00:01.25
Peak level 100.0 %
Extraction speed 1.8 X
Track quality 100.0 %
Test CRC 9BB91D93
Copy CRC 9BB91D93
Accurately ripped (confidence 2) [1F1E684C]
Copy OK
Track 8
Filename C:\MY RIPS\08 - Saídas e Bandeiras (Exits and Flags).wav
Peak level 100.0 %
Extraction speed 1.9 X
Track quality 100.0 %
Test CRC 535D2814
Copy CRC 535D2814
Accurately ripped (confidence 2) [569E5AB4]
Copy OK
Track 9
Filename C:\MY RIPS\09 - Os Povos (The People).wav
Pre-gap length 0:00:01.35
Peak level 100.0 %
Extraction speed 2.2 X
Track quality 100.0 %
Test CRC 526805F4
Copy CRC 526805F4
Accurately ripped (confidence 2) [FBCB0E8D]
Copy OK
All tracks accurately ripped
No errors occurred
End of status report
==== Log checksum 4A102857E9AA0DCFC1415C4E22050B4A8374972E28A775B897B2A863AEDED6ED ====
 
Содержание индексной карты (.CUE)
REM GENRE Other
REM DATE 1976
REM DISCID 6D0A2709
REM COMMENT "ExactAudioCopy v1.0b1"
PERFORMER "Milton Nascimento"
TITLE "Milton (1976)"
FILE "01 - Raca.wav" WAVE
TRACK 01 AUDIO
TITLE "Raca"
PERFORMER "Milton Nascimento"
INDEX 01 00:00:00
TRACK 02 AUDIO
TITLE "Fairy Tale Song (Cade)"
PERFORMER "Milton Nascimento"
INDEX 00 03:35:62
FILE "02 - Fairy Tale Song (Cade).wav" WAVE
INDEX 01 00:00:00
TRACK 03 AUDIO
TITLE "Francisco"
PERFORMER "Milton Nascimento"
INDEX 00 04:11:47
FILE "03 - Francisco.wav" WAVE
INDEX 01 00:00:00
TRACK 04 AUDIO
TITLE "Nothing Will Be As It Was (Nada Sera Como Antes)"
PERFORMER "Milton Nascimento"
INDEX 00 04:27:58
FILE "04 - Nothing Will Be As It Was (Nada Sera Como Antes).wav" WAVE
INDEX 01 00:00:00
FILE "05 - Cravo e Canela (Clove and Cinnamon).wav" WAVE
TRACK 05 AUDIO
TITLE "Cravo e Canela (Clove and Cinnamon)"
PERFORMER "Milton Nascimento"
INDEX 01 00:00:00
TRACK 06 AUDIO
TITLE "The Call (Chamada)"
PERFORMER "Milton Nascimento"
INDEX 00 03:44:25
FILE "06 - The Call (Chamada).wav" WAVE
INDEX 01 00:00:00
TRACK 07 AUDIO
TITLE "One Coin (Tostao)"
PERFORMER "Milton Nascimento"
INDEX 00 05:49:17
FILE "07 - One Coin (Tostao).wav" WAVE
INDEX 01 00:00:00
FILE "08 - Saidas e Bandeiras (Exits and Flags).wav" WAVE
TRACK 08 AUDIO
TITLE "Saidas e Bandeiras (Exits and Flags)"
PERFORMER "Milton Nascimento"
INDEX 01 00:00:00
TRACK 09 AUDIO
TITLE "Os Povos (The People)"
PERFORMER "Milton Nascimento"
INDEX 00 04:45:42
FILE "09 - Os Povos (The People).wav" WAVE
INDEX 01 00:00:00
 
Состав
Milton Nascimento (vocals, acoustic nylon-string guitar); Maria Fatima (vocals); Toninho Horta (12-string guitar); Wayne Shorter (soprano & tenor saxophones); Raul De Souza (trombone); Hugo Fattoruso (piano, organ); Herbie Hancock (piano); Novelli (bass); Airto Moreira, Roberto Silva (drums, percussion); Laudir De Oliveira (percussion)
23:47
376
Нет комментариев. Ваш будет первым!