Вы используете незарегистрированную версию компонента "Вкладки"!

Поиск

1991 Andy Kirk And His Twelve Clouds Of Joy - 1936-1937 {The Chronological Classics 573} [CD]

1991 Andy Kirk And His Twelve Clouds Of Joy - 1936-1937 {The Chronological Classics 573} [CD]
Стили:
Дата записи диска:
1 марта 1936 - 1 января 1937
Издатель (лейбл):
Номер по каталогу:
CC 573
Носитель:
CD
Тип рипа:
tracks+.cue
Аудиокодек:
FLAC (*.flac)
Битрейт аудио:
lossless
Время звучания:
01:09:31
Наличие сканов:
да
Страна-производитель диска (релиза):
France
Лог создания рипа
Exact Audio Copy V1.0 beta 2 from 29. April 2011
EAC extraction logfile from 4. September 2011, 12:56
Andy Kirk and his Twelve Clouds of Joy  / 1936-1937
Used drive  : Optiarc DVD RW AD-7170A   Adapter: 1  ID: 0
Read mode               : Secure
Utilize accurate stream : Yes
Defeat audio cache      : Yes
Make use of C2 pointers : No
Read offset correction                      : 48
Overread into Lead-In and Lead-Out          : No
Fill up missing offset samples with silence : Yes
Delete leading and trailing silent blocks   : No
Null samples used in CRC calculations       : Yes
Used interface                              : Native Win32 interface for Win NT & 2000
Gap handling                                : Appended to previous track
Used output format              : User Defined Encoder
Selected bitrate                : 1024 kBit/s
Quality                         : High
Add ID3 tag                     : No
Command line compressor         : C:\Program Files (x86)\Exact Audio Copy\Flac\flac.exe
Additional command line options : -8 -V -T "ARTIST=%artist%" -T "TITLE=%title%" -T "ALBUM=%albumtitle%" -T "DATE=%year%" -T "TRACKNUMBER=%tracknr%" -T "GENRE=%genre%" -T "PERFORMER=%albuminterpret%" -T "COMPOSER=%composer%" %haslyrics%--tag-from-file=LYRICS
TOC of the extracted CD
     Track |   Start  |  Length  | Start sector | End sector
    ---------------------------------------------------------
        1  |  0:00.33 |  2:57.40 |        33    |    13347
        2  |  2:57.73 |  3:07.32 |     13348    |    27404
        3  |  6:05.30 |  2:56.43 |     27405    |    40647
        4  |  9:01.73 |  2:52.40 |     40648    |    53587
        5  | 11:54.38 |  2:38.52 |     53588    |    65489
        6  | 14:33.15 |  3:12.30 |     65490    |    79919
        7  | 17:45.45 |  3:02.55 |     79920    |    93624
        8  | 20:48.25 |  2:50.03 |     93625    |   106377
        9  | 23:38.28 |  2:43.15 |    106378    |   118617
       10  | 26:21.43 |  2:28.47 |    118618    |   129764
       11  | 28:50.15 |  2:47.35 |    129765    |   142324
       12  | 31:37.50 |  2:57.38 |    142325    |   155637
       13  | 34:35.13 |  2:49.20 |    155638    |   168332
       14  | 37:24.33 |  3:01.70 |    168333    |   181977
       15  | 40:26.28 |  2:44.10 |    181978    |   194287
       16  | 43:10.38 |  2:55.60 |    194288    |   207472
       17  | 46:06.23 |  2:53.65 |    207473    |   220512
       18  | 49:00.13 |  2:36.47 |    220513    |   232259
       19  | 51:36.60 |  3:02.63 |    232260    |   245972
       20  | 54:39.48 |  2:45.67 |    245973    |   258414
       21  | 57:25.40 |  3:14.55 |    258415    |   273019
       22  | 60:40.20 |  3:22.65 |    273020    |   288234
       23  | 64:03.10 |  3:08.30 |    288235    |   302364
       24  | 67:11.40 |  3:00.68 |    302365    |   315932
Track  1
     Filename E:\Vuze_BitTorrent_DLs\EAC Rips\Andy Kirk And His Twelve Clouds Of Joy - 1936-1937 (1991) [FLAC] {Chronological Classics 573}\01 - Walkin' And Swingin'.wav
     Pre-gap length  0:00:02.44
     Peak level 88.4 %
     Extraction speed 4.4 X
     Track quality 100.0 %
     Test CRC 8F610539
     Copy CRC 8F610539
     Accurately ripped (confidence 2)  [8257EB5D]  (AR v1)
     Copy OK
Track  2
     Filename E:\Vuze_BitTorrent_DLs\EAC Rips\Andy Kirk And His Twelve Clouds Of Joy - 1936-1937 (1991) [FLAC] {Chronological Classics 573}\02 - Moten Swing.wav
     Pre-gap length  0:00:01.13
     Peak level 80.3 %
     Extraction speed 4.7 X
     Track quality 100.0 %
     Test CRC F890F9C5
     Copy CRC F890F9C5
     Accurately ripped (confidence 2)  [6A987779]  (AR v1)
     Copy OK
Track  3
     Filename E:\Vuze_BitTorrent_DLs\EAC Rips\Andy Kirk And His Twelve Clouds Of Joy - 1936-1937 (1991) [FLAC] {Chronological Classics 573}\03 - Lotta Sax Appeal.wav
     Pre-gap length  0:00:01.16
     Peak level 79.2 %
     Extraction speed 5.0 X
     Track quality 100.0 %
     Test CRC 7CCBFC17
     Copy CRC 7CCBFC17
     Accurately ripped (confidence 2)  [BD2D49C0]  (AR v1)
     Copy OK
Track  4
     Filename E:\Vuze_BitTorrent_DLs\EAC Rips\Andy Kirk And His Twelve Clouds Of Joy - 1936-1937 (1991) [FLAC] {Chronological Classics 573}\04 - Git.wav
     Pre-gap length  0:00:01.93
     Peak level 75.0 %
     Extraction speed 5.3 X
     Track quality 100.0 %
     Test CRC 7EF554F8
     Copy CRC 7EF554F8
     Accurately ripped (confidence 2)  [7A019F80]  (AR v1)
     Copy OK
Track  5
     Filename E:\Vuze_BitTorrent_DLs\EAC Rips\Andy Kirk And His Twelve Clouds Of Joy - 1936-1937 (1991) [FLAC] {Chronological Classics 573}\05 - All The Jive Is Gone.wav
     Pre-gap length  0:00:02.04
     Peak level 72.3 %
     Extraction speed 4.2 X
     Track quality 99.9 %
     Test CRC 80941834
     Copy CRC 80941834
     Accurately ripped (confidence 2)  [D99356C8]  (AR v1)
     Copy OK
Track  6
     Filename E:\Vuze_BitTorrent_DLs\EAC Rips\Andy Kirk And His Twelve Clouds Of Joy - 1936-1937 (1991) [FLAC] {Chronological Classics 573}\06 - Froggy Bottom.wav
     Pre-gap length  0:00:02.20
     Peak level 72.7 %
     Extraction speed 6.0 X
     Track quality 100.0 %
     Test CRC D7D7E917
     Copy CRC D7D7E917
     Accurately ripped (confidence 2)  [EC893409]  (AR v1)
     Copy OK
Track  7
     Filename E:\Vuze_BitTorrent_DLs\EAC Rips\Andy Kirk And His Twelve Clouds Of Joy - 1936-1937 (1991) [FLAC] {Chronological Classics 573}\07 - Bearcat Shuffle.wav
     Pre-gap length  0:00:01.80
     Peak level 88.1 %
     Extraction speed 6.1 X
     Track quality 100.0 %
     Test CRC C4F0C038
     Copy CRC C4F0C038
     Accurately ripped (confidence 2)  [5035A386]  (AR v1)
     Copy OK
Track  8
     Filename E:\Vuze_BitTorrent_DLs\EAC Rips\Andy Kirk And His Twelve Clouds Of Joy - 1936-1937 (1991) [FLAC] {Chronological Classics 573}\08 - Steppin' Pretty.wav
     Pre-gap length  0:00:02.00
     Peak level 82.0 %
     Extraction speed 6.3 X
     Track quality 100.0 %
     Test CRC E368AA33
     Copy CRC E368AA33
     Accurately ripped (confidence 2)  [BCEBB07B]  (AR v1)
     Copy OK
Track  9
     Filename E:\Vuze_BitTorrent_DLs\EAC Rips\Andy Kirk And His Twelve Clouds Of Joy - 1936-1937 (1991) [FLAC] {Chronological Classics 573}\09 - Christopher Columbus.wav
     Pre-gap length  0:00:01.73
     Peak level 70.4 %
     Extraction speed 6.4 X
     Track quality 100.0 %
     Test CRC 456AB05F
     Copy CRC 456AB05F
     Accurately ripped (confidence 2)  [D7F1F804]  (AR v1)
     Copy OK
Track 10
     Filename E:\Vuze_BitTorrent_DLs\EAC Rips\Andy Kirk And His Twelve Clouds Of Joy - 1936-1937 (1991) [FLAC] {Chronological Classics 573}\10 - Corky.wav
     Pre-gap length  0:00:01.44
     Peak level 39.5 %
     Extraction speed 6.5 X
     Track quality 100.0 %
     Test CRC 42747336
     Copy CRC 42747336
     Accurately ripped (confidence 2)  [DE91586F]  (AR v1)
     Copy OK
Track 11
     Filename E:\Vuze_BitTorrent_DLs\EAC Rips\Andy Kirk And His Twelve Clouds Of Joy - 1936-1937 (1991) [FLAC] {Chronological Classics 573}\11 - I'se A Muggin'.wav
     Pre-gap length  0:00:01.96
     Peak level 93.4 %
     Extraction speed 6.8 X
     Track quality 100.0 %
     Test CRC 94531ABD
     Copy CRC 94531ABD
     Accurately ripped (confidence 2)  [E3F676EA]  (AR v1)
     Copy OK
Track 12
     Filename E:\Vuze_BitTorrent_DLs\EAC Rips\Andy Kirk And His Twelve Clouds Of Joy - 1936-1937 (1991) [FLAC] {Chronological Classics 573}\12 - Until The Real Thing Comes Along.wav
     Pre-gap length  0:00:01.76
     Peak level 72.8 %
     Extraction speed 7.1 X
     Track quality 100.0 %
     Test CRC 55091190
     Copy CRC 55091190
     Accurately ripped (confidence 2)  [045A8878]  (AR v1)
     Copy OK
Track 13
     Filename E:\Vuze_BitTorrent_DLs\EAC Rips\Andy Kirk And His Twelve Clouds Of Joy - 1936-1937 (1991) [FLAC] {Chronological Classics 573}\13 - Puddin' Head Serenade.wav
     Pre-gap length  0:00:01.77
     Peak level 79.7 %
     Extraction speed 7.2 X
     Track quality 100.0 %
     Test CRC 670556D5
     Copy CRC 670556D5
     Accurately ripped (confidence 2)  [67221327]  (AR v1)
     Copy OK
Track 14
     Filename E:\Vuze_BitTorrent_DLs\EAC Rips\Andy Kirk And His Twelve Clouds Of Joy - 1936-1937 (1991) [FLAC] {Chronological Classics 573}\14 - Until The Real Thing Comes Along.wav
     Pre-gap length  0:00:02.84
     Peak level 66.4 %
     Extraction speed 5.8 X
     Track quality 99.9 %
     Test CRC C77705A3
     Copy CRC C77705A3
     Accurately ripped (confidence 2)  [FEA658E3]  (AR v1)
     Copy OK
Track 15
     Filename E:\Vuze_BitTorrent_DLs\EAC Rips\Andy Kirk And His Twelve Clouds Of Joy - 1936-1937 (1991) [FLAC] {Chronological Classics 573}\15 - Blue Illusion.wav
     Pre-gap length  0:00:01.20
     Peak level 80.1 %
     Extraction speed 7.5 X
     Track quality 100.0 %
     Test CRC C3AA5952
     Copy CRC C3AA5952
     Accurately ripped (confidence 2)  [131EC400]  (AR v1)
     Copy OK
Track 16
     Filename E:\Vuze_BitTorrent_DLs\EAC Rips\Andy Kirk And His Twelve Clouds Of Joy - 1936-1937 (1991) [FLAC] {Chronological Classics 573}\16 - Cloudy.wav
     Pre-gap length  0:00:01.24
     Peak level 64.7 %
     Extraction speed 7.5 X
     Track quality 100.0 %
     Test CRC 3E15DCFB
     Copy CRC 3E15DCFB
     Accurately ripped (confidence 2)  [E8F88715]  (AR v1)
     Copy OK
Track 17
     Filename E:\Vuze_BitTorrent_DLs\EAC Rips\Andy Kirk And His Twelve Clouds Of Joy - 1936-1937 (1991) [FLAC] {Chronological Classics 573}\17 - Give Her A Pint (And She'll Tell It All).wav
     Pre-gap length  0:00:01.97
     Peak level 86.2 %
     Extraction speed 7.2 X
     Track quality 100.0 %
     Test CRC 9B49BEC1
     Copy CRC 9B49BEC1
     Accurately ripped (confidence 2)  [F6CE20AB]  (AR v1)
     Copy OK
Track 18
     Filename E:\Vuze_BitTorrent_DLs\EAC Rips\Andy Kirk And His Twelve Clouds Of Joy - 1936-1937 (1991) [FLAC] {Chronological Classics 573}\18 - Puddin' Head Serenade.wav
     Pre-gap length  0:00:01.24
     Peak level 75.8 %
     Extraction speed 7.7 X
     Track quality 100.0 %
     Test CRC 299C892A
     Copy CRC 299C892A
     Accurately ripped (confidence 2)  [E56E11F2]  (AR v1)
     Copy OK
Track 19
     Filename E:\Vuze_BitTorrent_DLs\EAC Rips\Andy Kirk And His Twelve Clouds Of Joy - 1936-1937 (1991) [FLAC] {Chronological Classics 573}\19 - Fifty-Second Street.wav
     Pre-gap length  0:00:01.46
     Peak level 65.7 %
     Extraction speed 7.9 X
     Track quality 100.0 %
     Test CRC 46E3F66E
     Copy CRC 46E3F66E
     Accurately ripped (confidence 2)  [0C6348BC]  (AR v1)
     Copy OK
Track 20
     Filename E:\Vuze_BitTorrent_DLs\EAC Rips\Andy Kirk And His Twelve Clouds Of Joy - 1936-1937 (1991) [FLAC] {Chronological Classics 573}\20 - The Lady Who Swings The Band.wav
     Pre-gap length  0:00:01.70
     Peak level 72.4 %
     Extraction speed 8.2 X
     Track quality 100.0 %
     Test CRC F938E9F6
     Copy CRC F938E9F6
     Accurately ripped (confidence 2)  [C3A255D5]  (AR v1)
     Copy OK
Track 21
     Filename E:\Vuze_BitTorrent_DLs\EAC Rips\Andy Kirk And His Twelve Clouds Of Joy - 1936-1937 (1991) [FLAC] {Chronological Classics 573}\21 - What Will I Tell My Heart.wav
     Pre-gap length  0:00:01.22
     Peak level 67.6 %
     Extraction speed 8.4 X
     Track quality 100.0 %
     Test CRC 94AE8F89
     Copy CRC 94AE8F89
     Accurately ripped (confidence 2)  [07C4DA8D]  (AR v1)
     Copy OK
Track 22
     Filename E:\Vuze_BitTorrent_DLs\EAC Rips\Andy Kirk And His Twelve Clouds Of Joy - 1936-1937 (1991) [FLAC] {Chronological Classics 573}\22 - Dedicated To You.wav
     Pre-gap length  0:00:01.46
     Peak level 81.5 %
     Extraction speed 6.7 X
     Track quality 99.9 %
     Test CRC D8B58CC5
     Copy CRC D8B58CC5
     Accurately ripped (confidence 2)  [12B2BF20]  (AR v1)
     Copy OK
Track 23
     Filename E:\Vuze_BitTorrent_DLs\EAC Rips\Andy Kirk And His Twelve Clouds Of Joy - 1936-1937 (1991) [FLAC] {Chronological Classics 573}\23 - Wednesday Night Hop.wav
     Pre-gap length  0:00:02.29
     Peak level 72.0 %
     Extraction speed 6.2 X
     Track quality 99.9 %
     Test CRC 35264821
     Copy CRC 35264821
     Accurately ripped (confidence 2)  [17A442F5]  (AR v1)
     Copy OK
Track 24
     Filename E:\Vuze_BitTorrent_DLs\EAC Rips\Andy Kirk And His Twelve Clouds Of Joy - 1936-1937 (1991) [FLAC] {Chronological Classics 573}\24 - Skies Are Blues.wav
     Pre-gap length  0:00:01.80
     Peak level 85.6 %
     Extraction speed 6.7 X
     Track quality 99.9 %
     Test CRC EA07AD03
     Copy CRC EA07AD03
     Accurately ripped (confidence 2)  [66E3E0A3]  (AR v1)
     Copy OK
All tracks accurately ripped
No errors occurred
End of status report
==== Log checksum E06A71C3AFBEF9C2F8D104B12F3185EEDF00A67856E0564D80FA9E91052B4DB9 ====
Содержание индексной карты (.CUE)
REM GENRE Jazz
REM DATE 1991
REM DISCID 71107418
REM COMMENT "ExactAudioCopy v1.0b2"
FILE "01. Walkin' And Swingin'.flac" WAVE
  TRACK 01 AUDIO
    PREGAP 00:00:33
    INDEX 01 00:00:00
  TRACK 02 AUDIO
    INDEX 00 02:56:30
FILE "02. Moten Swing.flac" WAVE
    INDEX 01 00:00:00
  TRACK 03 AUDIO
    INDEX 00 03:06:20
FILE "03. Lotta Sax Appeal.flac" WAVE
    INDEX 01 00:00:00
  TRACK 04 AUDIO
    INDEX 00 02:54:48
FILE "04. Git.flac" WAVE
    INDEX 01 00:00:00
  TRACK 05 AUDIO
    INDEX 00 02:50:37
FILE "05. All The Jive Is Gone.flac" WAVE
    INDEX 01 00:00:00
  TRACK 06 AUDIO
    INDEX 00 02:36:37
FILE "06. Froggy Bottom.flac" WAVE
    INDEX 01 00:00:00
  TRACK 07 AUDIO
    INDEX 00 03:10:45
FILE "07. Bearcat Shuffle.flac" WAVE
    INDEX 01 00:00:00
  TRACK 08 AUDIO
    INDEX 00 03:00:55
FILE "08. Steppin' Pretty.flac" WAVE
    INDEX 01 00:00:00
  TRACK 09 AUDIO
    INDEX 00 02:48:23
FILE "09. Christopher Columbus.flac" WAVE
    INDEX 01 00:00:00
  TRACK 10 AUDIO
    INDEX 00 02:41:57
FILE "10. Corky.flac" WAVE
    INDEX 01 00:00:00
  TRACK 11 AUDIO
    INDEX 00 02:26:50
FILE "11. I'se A Muggin'.flac" WAVE
    INDEX 01 00:00:00
  TRACK 12 AUDIO
    INDEX 00 02:45:53
FILE "12. Until The Real Thing Comes Along.flac" WAVE
    INDEX 01 00:00:00
  TRACK 13 AUDIO
    INDEX 00 02:55:55
FILE "13. Puddin' Head Serenade.flac" WAVE
    INDEX 01 00:00:00
  TRACK 14 AUDIO
    INDEX 00 02:46:32
FILE "14. Until The Real Thing Comes Along.flac" WAVE
    INDEX 01 00:00:00
  TRACK 15 AUDIO
    INDEX 00 03:00:55
FILE "15. Blue Illusion.flac" WAVE
    INDEX 01 00:00:00
  TRACK 16 AUDIO
    INDEX 00 02:42:67
FILE "16. Cloudy.flac" WAVE
    INDEX 01 00:00:00
  TRACK 17 AUDIO
    INDEX 00 02:53:62
FILE "17. Give Her A Pint (And She'll Tell It All).flac" WAVE
    INDEX 01 00:00:00
  TRACK 18 AUDIO
    INDEX 00 02:52:47
FILE "18. Puddin' Head Serenade.flac" WAVE
    INDEX 01 00:00:00
  TRACK 19 AUDIO
    INDEX 00 02:35:12
FILE "19. Fifty-Second Street.flac" WAVE
    INDEX 01 00:00:00
  TRACK 20 AUDIO
    INDEX 00 03:01:10
FILE "20. The Lady Who Swings The Band.flac" WAVE
    INDEX 01 00:00:00
  TRACK 21 AUDIO
    INDEX 00 02:44:50
FILE "21. What Will I Tell My Heart.flac" WAVE
    INDEX 01 00:00:00
  TRACK 22 AUDIO
    INDEX 00 03:13:20
FILE "22. Dedicated To You.flac" WAVE
    INDEX 01 00:00:00
  TRACK 23 AUDIO
    INDEX 00 03:20:43
FILE "23. Wednesday Night Hop.flac" WAVE
    INDEX 01 00:00:00
  TRACK 24 AUDIO
    INDEX 00 03:06:45
FILE "24. Skies Are Blue.flac" WAVE
    INDEX 01 00:00:00
Any questions - support@pro-jazz.com. Есть вопросы - support@pro-jazz.com
01:13
202
Нет комментариев. Ваш будет первым!