Поиск

1991 Andy Kirk And His Twelve Clouds Of Joy - 1937-1938 {The Chronological Classics 581} [CD]

1991 Andy Kirk And His Twelve Clouds Of Joy - 1937-1938 {The Chronological Classics 581} [CD]
Стили:
Издатель (лейбл):
Номер по каталогу:
CC581
Носитель:
CD
Тип рипа:
tracks+.cue
Аудиокодек:
FLAC (*.flac)
Битрейт аудио:
lossless
Наличие сканов:
да
Треклист:

01. Downstream (2:57)
02. In The Groove (3:07)
03. Worried Over You (3:11)
04. Foolin' Myself (3:02)
05. I'm Glad For Your Sake (But I'm Sorry For Mine) (2:59)
06. I'll Get Along Somehow (2:51)
07. A Mellow Bit Of Rhythm (3:23)
08. In My Wildest Dreams (2:54)
09. Better Luck Next Time (2:50)
10. With Love In My Heart (2:44)
11. What's Mine Is Yours (3:17)
12. Why Can't We Do It Again? (3:11)
13. The Key To My Heart (3:08)
14. I Went To A Gypsy (2:52)
15. Lover, Come Back To Me! (3:16)
16. Poor Butterfly (2:53)
17. The Big Dipper (2:58)
18. Bear Down (3:03)
19. I Surrender Dear (3:08)
20. Twinklin' (3:11)
21. It Must Be True (You Are Mine - All Mine) (3:09)
22. I'll Get By (3:07)
23. Little Joe From Chicago (2:52)

Состав:
  • Alto Saxophone – Earl Miller
  • Alto Saxophone, Baritone Saxophone – John Williams (14)
  • Arranged By – Earl Thompson
  • Bass – Booker Collins
  • Clarinet, Alto Saxophone, Baritone Saxophone – John Harrington
  • Directed By, Bass Saxophone – Andy Kirk
  • Drums – Ben Thigpen
  • Guitar – Ted Robinson (2)
  • Liner Notes – Anatol Schenker
  • Piano – Mary Lou Williams
  • Tenor Saxophone – Dick Wilson
  • Trombone – Henry Wells, Ted Donnelly
  • Trumpet – Clarence Trice (треков: 15 to 23), Earl Thompson, Harry Lawson, Paul King (4) (треков: 1 to 14)
  • Violin – Claude Williams
  • Vocals – Henry Wells (треков: 12, 22), Pha Terrell (треков: 1, 3 to 6, 8 to 16, 19, 21)
Лог создания рипа
Exact Audio Copy V1.0 beta 2 from 29. April 2011
EAC extraction logfile from 5. September 2011, 22:31
Andy Kirk and his 12 Clouds of Joy / 1937-1938
Used drive  : Optiarc DVD RW AD-7170A   Adapter: 1  ID: 0
Read mode               : Secure
Utilize accurate stream : Yes
Defeat audio cache      : Yes
Make use of C2 pointers : No
Read offset correction                      : 48
Overread into Lead-In and Lead-Out          : No
Fill up missing offset samples with silence : Yes
Delete leading and trailing silent blocks   : No
Null samples used in CRC calculations       : Yes
Used interface                              : Native Win32 interface for Win NT & 2000
Gap handling                                : Appended to previous track
Used output format              : User Defined Encoder
Selected bitrate                : 1024 kBit/s
Quality                         : High
Add ID3 tag                     : No
Command line compressor         : C:\Program Files (x86)\Exact Audio Copy\Flac\flac.exe
Additional command line options : -8 -V -T "ARTIST=%artist%" -T "TITLE=%title%" -T "ALBUM=%albumtitle%" -T "DATE=%year%" -T "TRACKNUMBER=%tracknr%" -T "GENRE=%genre%" -T "PERFORMER=%albuminterpret%" -T "COMPOSER=%composer%" %haslyrics%--tag-from-file=LYRICS
TOC of the extracted CD
     Track |   Start  |  Length  | Start sector | End sector
    ---------------------------------------------------------
        1  |  0:00.33 |  2:57.37 |        33    |    13344
        2  |  2:57.70 |  3:07.08 |     13345    |    27377
        3  |  6:05.03 |  3:10.52 |     27378    |    41679
        4  |  9:15.55 |  3:02.33 |     41680    |    55362
        5  | 12:18.13 |  2:59.00 |     55363    |    68787
        6  | 15:17.13 |  2:50.65 |     68788    |    81602
        7  | 18:08.03 |  3:22.47 |     81603    |    96799
        8  | 21:30.50 |  2:54.00 |     96800    |   109849
        9  | 24:24.50 |  2:49.68 |    109850    |   122592
       10  | 27:14.43 |  2:44.17 |    122593    |   134909
       11  | 29:58.60 |  3:16.60 |    134910    |   149669
       12  | 33:15.45 |  3:11.23 |    149670    |   164017
       13  | 36:26.68 |  3:08.35 |    164018    |   178152
       14  | 39:35.28 |  2:51.45 |    178153    |   191022
       15  | 42:26.73 |  3:15.52 |    191023    |   205699
       16  | 45:42.50 |  2:52.65 |    205700    |   218664
       17  | 48:35.40 |  2:57.43 |    218665    |   231982
       18  | 51:33.08 |  3:03.32 |    231983    |   245739
       19  | 54:36.40 |  3:07.53 |    245740    |   259817
       20  | 57:44.18 |  3:11.10 |    259818    |   274152
       21  | 60:55.28 |  3:09.25 |    274153    |   288352
       22  | 64:04.53 |  3:06.55 |    288353    |   302357
       23  | 67:11.33 |  2:51.57 |    302358    |   315239
Track  1
     Filename E:\Vuze_BitTorrent_DLs\EAC Rips\Andy Kirk And His Twelve Clouds Of Joy - 1937-1938 (1991) [FLAC] {Chronological Classics 581}\01 - Downstream.wav
     Pre-gap length  0:00:02.44
     Peak level 96.4 %
     Extraction speed 4.3 X
     Track quality 100.0 %
     Test CRC 8D98AC70
     Copy CRC 8D98AC70
     Accurately ripped (confidence 1)  [7D9906D2]  (AR v1)
     Copy OK
Track  2
     Filename E:\Vuze_BitTorrent_DLs\EAC Rips\Andy Kirk And His Twelve Clouds Of Joy - 1937-1938 (1991) [FLAC] {Chronological Classics 581}\02 - In The Groove.wav
     Pre-gap length  0:00:01.82
     Peak level 99.4 %
     Extraction speed 2.9 X
     Track quality 99.8 %
     Test CRC 69B0BE8F
     Copy CRC 69B0BE8F
     Accurately ripped (confidence 1)  [EFC5DA7C]  (AR v1)
     Copy OK
Track  3
     Filename E:\Vuze_BitTorrent_DLs\EAC Rips\Andy Kirk And His Twelve Clouds Of Joy - 1937-1938 (1991) [FLAC] {Chronological Classics 581}\03 - Worried Over You.wav
     Pre-gap length  0:00:02.44
     Peak level 79.3 %
     Extraction speed 5.1 X
     Track quality 100.0 %
     Test CRC 415B9E60
     Copy CRC 415B9E60
     Accurately ripped (confidence 1)  [3D00A765]  (AR v1)
     Copy OK
Track  4
     Filename E:\Vuze_BitTorrent_DLs\EAC Rips\Andy Kirk And His Twelve Clouds Of Joy - 1937-1938 (1991) [FLAC] {Chronological Classics 581}\04 - Foolin' Myself.wav
     Pre-gap length  0:00:01.66
     Peak level 83.3 %
     Extraction speed 5.4 X
     Track quality 100.0 %
     Test CRC 21847613
     Copy CRC 21847613
     Accurately ripped (confidence 1)  [D8F15582]  (AR v1)
     Copy OK
Track  5
     Filename E:\Vuze_BitTorrent_DLs\EAC Rips\Andy Kirk And His Twelve Clouds Of Joy - 1937-1938 (1991) [FLAC] {Chronological Classics 581}\05 - I'm Glad for Your Sake (But I'm Sorry for Mine).wav
     Pre-gap length  0:00:02.00
     Peak level 81.9 %
     Extraction speed 5.7 X
     Track quality 100.0 %
     Test CRC DDEB6447
     Copy CRC DDEB6447
     Accurately ripped (confidence 1)  [3279A1DE]  (AR v1)
     Copy OK
Track  6
     Filename E:\Vuze_BitTorrent_DLs\EAC Rips\Andy Kirk And His Twelve Clouds Of Joy - 1937-1938 (1991) [FLAC] {Chronological Classics 581}\06 - I'll Get Along Somehow.wav
     Pre-gap length  0:00:01.73
     Peak level 97.3 %
     Extraction speed 5.8 X
     Track quality 100.0 %
     Test CRC 4FD809C1
     Copy CRC 4FD809C1
     Accurately ripped (confidence 1)  [5341C456]  (AR v1)
     Copy OK
Track  7
     Filename E:\Vuze_BitTorrent_DLs\EAC Rips\Andy Kirk And His Twelve Clouds Of Joy - 1937-1938 (1991) [FLAC] {Chronological Classics 581}\07 - A Mellow Bit Of Rhythm.wav
     Pre-gap length  0:00:01.73
     Peak level 87.3 %
     Extraction speed 6.3 X
     Track quality 100.0 %
     Test CRC F13C7FAD
     Copy CRC F13C7FAD
     Accurately ripped (confidence 1)  [C1DA63EB]  (AR v1)
     Copy OK
Track  8
     Filename E:\Vuze_BitTorrent_DLs\EAC Rips\Andy Kirk And His Twelve Clouds Of Joy - 1937-1938 (1991) [FLAC] {Chronological Classics 581}\08 - In My Wildest Dreams.wav
     Pre-gap length  0:00:01.80
     Peak level 95.0 %
     Extraction speed 6.4 X
     Track quality 100.0 %
     Test CRC 6147FDB5
     Copy CRC 6147FDB5
     Accurately ripped (confidence 1)  [38E116D4]  (AR v1)
     Copy OK
Track  9
     Filename E:\Vuze_BitTorrent_DLs\EAC Rips\Andy Kirk And His Twelve Clouds Of Joy - 1937-1938 (1991) [FLAC] {Chronological Classics 581}\09 - Better Luck Next Time.wav
     Pre-gap length  0:00:02.29
     Peak level 78.1 %
     Extraction speed 6.5 X
     Track quality 100.0 %
     Test CRC 8DFC6C19
     Copy CRC 8DFC6C19
     Accurately ripped (confidence 1)  [83648FEA]  (AR v1)
     Copy OK
Track 10
     Filename E:\Vuze_BitTorrent_DLs\EAC Rips\Andy Kirk And His Twelve Clouds Of Joy - 1937-1938 (1991) [FLAC] {Chronological Classics 581}\10 - With Love In My Heart.wav
     Pre-gap length  0:00:02.00
     Peak level 76.2 %
     Extraction speed 6.6 X
     Track quality 100.0 %
     Test CRC 6CB0C144
     Copy CRC 6CB0C144
     Accurately ripped (confidence 1)  [71C185F4]  (AR v1)
     Copy OK
Track 11
     Filename E:\Vuze_BitTorrent_DLs\EAC Rips\Andy Kirk And His Twelve Clouds Of Joy - 1937-1938 (1991) [FLAC] {Chronological Classics 581}\11 - What's Mine is Yours.wav
     Pre-gap length  0:00:02.73
     Peak level 86.0 %
     Extraction speed 6.1 X
     Track quality 100.0 %
     Test CRC 3B607087
     Copy CRC 3B607087
     Accurately ripped (confidence 1)  [BD15CC96]  (AR v1)
     Copy OK
Track 12
     Filename E:\Vuze_BitTorrent_DLs\EAC Rips\Andy Kirk And His Twelve Clouds Of Joy - 1937-1938 (1991) [FLAC] {Chronological Classics 581}\12 - Why Can't We Do It Again.wav
     Pre-gap length  0:00:02.20
     Peak level 88.2 %
     Extraction speed 7.1 X
     Track quality 100.0 %
     Test CRC 4593A338
     Copy CRC 4593A338
     Accurately ripped (confidence 1)  [8335E0D6]  (AR v1)
     Copy OK
Track 13
     Filename E:\Vuze_BitTorrent_DLs\EAC Rips\Andy Kirk And His Twelve Clouds Of Joy - 1937-1938 (1991) [FLAC] {Chronological Classics 581}\13 - The Key To My Heart.wav
     Pre-gap length  0:00:01.64
     Peak level 81.8 %
     Extraction speed 7.2 X
     Track quality 100.0 %
     Test CRC 98C7F145
     Copy CRC 98C7F145
     Accurately ripped (confidence 1)  [40A0F195]  (AR v1)
     Copy OK
Track 14
     Filename E:\Vuze_BitTorrent_DLs\EAC Rips\Andy Kirk And His Twelve Clouds Of Joy - 1937-1938 (1991) [FLAC] {Chronological Classics 581}\14 - I Went to a Gypsy.wav
     Pre-gap length  0:00:00.84
     Peak level 76.0 %
     Extraction speed 7.2 X
     Track quality 100.0 %
     Test CRC A56BF6AF
     Copy CRC A56BF6AF
     Accurately ripped (confidence 1)  [B3815499]  (AR v1)
     Copy OK
Track 15
     Filename E:\Vuze_BitTorrent_DLs\EAC Rips\Andy Kirk And His Twelve Clouds Of Joy - 1937-1938 (1991) [FLAC] {Chronological Classics 581}\15 - Lover, Come Back To Me!.wav
     Pre-gap length  0:00:01.24
     Peak level 77.0 %
     Extraction speed 7.6 X
     Track quality 100.0 %
     Test CRC 6CBD08CE
     Copy CRC 6CBD08CE
     Accurately ripped (confidence 1)  [8527FE51]  (AR v1)
     Copy OK
Track 16
     Filename E:\Vuze_BitTorrent_DLs\EAC Rips\Andy Kirk And His Twelve Clouds Of Joy - 1937-1938 (1991) [FLAC] {Chronological Classics 581}\16 - Poor Butterfly.wav
     Pre-gap length  0:00:01.29
     Peak level 65.2 %
     Extraction speed 6.7 X
     Track quality 100.0 %
     Test CRC 9AF590FE
     Copy CRC 9AF590FE
     Cannot be verified as accurate (confidence 1)  [F0D832FC], AccurateRip returned [6FB2BC3B]  (AR v2)
     Copy OK
Track 17
     Filename E:\Vuze_BitTorrent_DLs\EAC Rips\Andy Kirk And His Twelve Clouds Of Joy - 1937-1938 (1991) [FLAC] {Chronological Classics 581}\17 - The Big Dipper.wav
     Pre-gap length  0:00:01.13
     Peak level 92.0 %
     Extraction speed 7.4 X
     Track quality 100.0 %
     Test CRC 1F508F23
     Copy CRC 1F508F23
     Cannot be verified as accurate (confidence 1)  [DF448FA7], AccurateRip returned [C1158339]  (AR v2)
     Copy OK
Track 18
     Filename E:\Vuze_BitTorrent_DLs\EAC Rips\Andy Kirk And His Twelve Clouds Of Joy - 1937-1938 (1991) [FLAC] {Chronological Classics 581}\18 - Bear Down.wav
     Pre-gap length  0:00:01.33
     Peak level 89.1 %
     Extraction speed 7.8 X
     Track quality 100.0 %
     Test CRC DF21B37B
     Copy CRC DF21B37B
     Accurately ripped (confidence 1)  [307123EE]  (AR v1)
     Copy OK
Track 19
     Filename E:\Vuze_BitTorrent_DLs\EAC Rips\Andy Kirk And His Twelve Clouds Of Joy - 1937-1938 (1991) [FLAC] {Chronological Classics 581}\19 - I Surrender Dear.wav
     Pre-gap length  0:00:01.00
     Peak level 74.5 %
     Extraction speed 8.1 X
     Track quality 100.0 %
     Test CRC AC84B432
     Copy CRC AC84B432
     Accurately ripped (confidence 1)  [3835CB43]  (AR v1)
     Copy OK
Track 20
     Filename E:\Vuze_BitTorrent_DLs\EAC Rips\Andy Kirk And His Twelve Clouds Of Joy - 1937-1938 (1991) [FLAC] {Chronological Classics 581}\20 - Twinklin'.wav
     Pre-gap length  0:00:01.20
     Peak level 81.4 %
     Extraction speed 7.8 X
     Track quality 100.0 %
     Test CRC 56B89B3C
     Copy CRC 56B89B3C
     Accurately ripped (confidence 1)  [358A8E97]  (AR v1)
     Copy OK
Track 21
     Filename E:\Vuze_BitTorrent_DLs\EAC Rips\Andy Kirk And His Twelve Clouds Of Joy - 1937-1938 (1991) [FLAC] {Chronological Classics 581}\21 - It Must be True (You Are Mine - All Mine).wav
     Pre-gap length  0:00:01.37
     Peak level 85.1 %
     Extraction speed 7.8 X
     Track quality 100.0 %
     Test CRC 03A36A69
     Copy CRC 03A36A69
     Accurately ripped (confidence 1)  [E6CF9307]  (AR v1)
     Copy OK
Track 22
     Filename E:\Vuze_BitTorrent_DLs\EAC Rips\Andy Kirk And His Twelve Clouds Of Joy - 1937-1938 (1991) [FLAC] {Chronological Classics 581}\22 - I'll Get By.wav
     Pre-gap length  0:00:01.40
     Peak level 78.2 %
     Extraction speed 8.6 X
     Track quality 100.0 %
     Test CRC DA373D34
     Copy CRC DA373D34
     Accurately ripped (confidence 1)  [6F12BC8F]  (AR v1)
     Copy OK
Track 23
     Filename E:\Vuze_BitTorrent_DLs\EAC Rips\Andy Kirk And His Twelve Clouds Of Joy - 1937-1938 (1991) [FLAC] {Chronological Classics 581}\23 - Little Joe From Chicago.wav
     Pre-gap length  0:00:01.64
     Peak level 74.3 %
     Extraction speed 9.0 X
     Track quality 100.0 %
     Test CRC E4E5FBB7
     Copy CRC E4E5FBB7
     Accurately ripped (confidence 1)  [399FE2C4]  (AR v1)
     Copy OK
21 track(s) accurately ripped
 2 track(s) could not be verified as accurate
Some tracks could not be verified as accurate
No errors occurred
End of status report
==== Log checksum E4A332FB28C4AEA52F488218A105EEFD40085144E3A768540029EA772979FB11 ====
По всем вопросам пишите личное сообщение пользователю M0p94ok.
00:14
408
Нет комментариев. Ваш будет первым!