Вы используете незарегистрированную версию компонента "Вкладки"!

Поиск

1991 Art Tatum - 1934-1940 {The Chronological Classics 560} [CD]

1991 Art Tatum - 1934-1940 {The Chronological Classics 560} [CD]
Стили:
Издатель (лейбл):
Номер по каталогу:
560
Носитель:
CD
Тип рипа:
tracks+.cue
Аудиокодек:
FLAC (*.flac)
Битрейт аудио:
lossless
Наличие сканов:
только обложка
Страна-производитель диска (релиза):
France
Лог создания рипа
Exact Audio Copy V0.99 prebeta 5 from 4. May 2009
EAC extraction logfile from 23. June 2011, 16:50
Art Tatum / The Chronological Classics 1934-1940
Used drive  : Optiarc DVD RW AD-7260S   Adapter: 3  ID: 0
Read mode               : Secure
Utilize accurate stream : Yes
Defeat audio cache      : Yes
Make use of C2 pointers : No
Read offset correction                      : 48
Overread into Lead-In and Lead-Out          : No
Fill up missing offset samples with silence : Yes
Delete leading and trailing silent blocks   : No
Null samples used in CRC calculations       : Yes
Used interface                              : Native Win32 interface for Win NT & 2000
Gap handling                                : Appended to previous track
Used output format              : User Defined Encoder
Selected bitrate                : 320 kBit/s
Quality                         : High
Add ID3 tag                     : No
Command line compressor         : C:\Program Files (x86)\FLAC\flac.exe
Additional command line options : -V -8 -T "artist=%a" -T "title=%t" -T "album=%g" -T "date=%y" -T "tracknumber=%n" -T "genre=%m" %s
TOC of the extracted CD
     Track |   Start  |  Length  | Start sector | End sector
    ---------------------------------------------------------
        1  |  0:00.33 |  3:09.15 |        33    |    14222
        2  |  3:09.48 |  3:09.65 |     14223    |    28462
        3  |  6:19.38 |  3:09.15 |     28463    |    42652
        4  |  9:28.53 |  2:43.55 |     42653    |    54932
        5  | 12:12.33 |  3:09.00 |     54933    |    69107
        6  | 15:21.33 |  3:02.35 |     69108    |    82792
        7  | 18:23.68 |  2:53.30 |     82793    |    95797
        8  | 21:17.23 |  3:13.52 |     95798    |   110324
        9  | 24:31.00 |  3:26.03 |    110325    |   125777
       10  | 27:57.03 |  2:44.35 |    125778    |   138112
       11  | 30:41.38 |  2:39.52 |    138113    |   150089
       12  | 33:21.15 |  3:20.30 |    150090    |   165119
       13  | 36:41.45 |  3:17.05 |    165120    |   179899
       14  | 39:58.50 |  3:06.33 |    179900    |   193882
       15  | 43:05.08 |  3:03.15 |    193883    |   207622
       16  | 46:08.23 |  2:46.65 |    207623    |   220137
       17  | 48:55.13 |  3:08.02 |    220138    |   234239
       18  | 52:03.15 |  2:16.10 |    234240    |   244449
       19  | 54:19.25 |  3:00.60 |    244450    |   258009
       20  | 57:20.10 |  2:22.65 |    258010    |   268724
       21  | 59:43.00 |  3:00.28 |    268725    |   282252
       22  | 62:43.28 |  2:45.45 |    282253    |   294672
       23  | 65:28.73 |  2:51.15 |    294673    |   307512
       24  | 68:20.13 |  2:32.07 |    307513    |   318919
Track  1
     Filename E:\Rips\01 - Liza.wav
     Pre-gap length  0:00:02.44
     Peak level 87.7 %
     Track quality 100.0 %
     Test CRC C5893AB9
     Copy CRC C5893AB9
     Accurately ripped (confidence 1)  [8CD1197E]
     Copy OK
Track  2
     Filename E:\Rips\02 - Take Me Back To My Boots And Saddle.wav
     Pre-gap length  0:00:01.37
     Peak level 97.9 %
     Track quality 100.0 %
     Test CRC A2052028
     Copy CRC A2052028
     Accurately ripped (confidence 1)  [BCF12E1E]
     Copy OK
Track  3
     Filename E:\Rips\03 - Body And Soul.wav
     Pre-gap length  0:00:01.84
     Peak level 97.9 %
     Track quality 100.0 %
     Test CRC 254A9E4A
     Copy CRC 254A9E4A
     Accurately ripped (confidence 1)  [9FBFC309]
     Copy OK
Track  4
     Filename E:\Rips\04 - With Plenty Of Money And You.wav
     Pre-gap length  0:00:01.93
     Peak level 97.9 %
     Track quality 100.0 %
     Test CRC AB2AF818
     Copy CRC AB2AF818
     Accurately ripped (confidence 1)  [C26F11F3]
     Copy OK
Track  5
     Filename E:\Rips\05 - What Will I Tell My Heart .wav
     Pre-gap length  0:00:02.10
     Peak level 97.9 %
     Track quality 100.0 %
     Test CRC AA9B14FF
     Copy CRC AA9B14FF
     Accurately ripped (confidence 1)  [2A56E7AC]
     Copy OK
Track  6
     Filename E:\Rips\06 - I've Got My Love To Keep Me Warm.wav
     Pre-gap length  0:00:01.73
     Peak level 97.7 %
     Track quality 100.0 %
     Test CRC 29E4D43D
     Copy CRC 29E4D43D
     Accurately ripped (confidence 1)  [1EB26C16]
     Copy OK
Track  7
     Filename E:\Rips\07 - Gone With The Wind.wav
     Pre-gap length  0:00:01.20
     Peak level 97.9 %
     Track quality 100.0 %
     Test CRC 4A2FC3CF
     Copy CRC 4A2FC3CF
     Accurately ripped (confidence 1)  [34FFEBF7]
     Copy OK
Track  8
     Filename E:\Rips\08 - Stormy Weather.wav
     Pre-gap length  0:00:02.00
     Peak level 97.9 %
     Track quality 100.0 %
     Test CRC 0E52083A
     Copy CRC 0E52083A
     Accurately ripped (confidence 1)  [80A3414F]
     Copy OK
Track  9
     Filename E:\Rips\09 - Chlo-E.wav
     Pre-gap length  0:00:02.06
     Peak level 90.0 %
     Track quality 100.0 %
     Test CRC 5029BB46
     Copy CRC 5029BB46
     Accurately ripped (confidence 1)  [EBCB4CC9]
     Copy OK
Track 10
     Filename E:\Rips\10 - The Sheik Of Araby.wav
     Pre-gap length  0:00:01.64
     Peak level 94.4 %
     Track quality 100.0 %
     Test CRC A5098725
     Copy CRC A5098725
     Accurately ripped (confidence 1)  [49756ADA]
     Copy OK
Track 11
     Filename E:\Rips\11 - Tea For Two.wav
     Pre-gap length  0:00:02.10
     Peak level 97.2 %
     Track quality 100.0 %
     Test CRC B658B848
     Copy CRC B658B848
     Accurately ripped (confidence 1)  [6163D133]
     Copy OK
Track 12
     Filename E:\Rips\12 - Deep Purple.wav
     Pre-gap length  0:00:02.29
     Peak level 97.2 %
     Track quality 100.0 %
     Test CRC F300F9CD
     Copy CRC F300F9CD
     Accurately ripped (confidence 1)  [CA97A43E]
     Copy OK
Track 13
     Filename E:\Rips\13 - Elegie.wav
     Pre-gap length  0:00:02.00
     Peak level 95.1 %
     Track quality 100.0 %
     Test CRC 52BB399C
     Copy CRC 52BB399C
     Accurately ripped (confidence 1)  [7888DA0E]
     Copy OK
Track 14
     Filename E:\Rips\14 - Humoresque.wav
     Pre-gap length  0:00:01.80
     Peak level 97.9 %
     Track quality 100.0 %
     Test CRC 3C5329B7
     Copy CRC 3C5329B7
     Accurately ripped (confidence 1)  [E30F19E0]
     Copy OK
Track 15
     Filename E:\Rips\15 - Sweet Lorraine.wav
     Pre-gap length  0:00:01.70
     Peak level 88.6 %
     Track quality 100.0 %
     Test CRC 098DE049
     Copy CRC 098DE049
     Accurately ripped (confidence 1)  [C1B71E32]
     Copy OK
Track 16
     Filename E:\Rips\16 - Get Happy.wav
     Pre-gap length  0:00:02.02
     Peak level 88.3 %
     Track quality 100.0 %
     Test CRC C74F1778
     Copy CRC C74F1778
     Accurately ripped (confidence 1)  [2DECCABE]
     Copy OK
Track 17
     Filename E:\Rips\17 - Lullaby Of The Leaves.wav
     Pre-gap length  0:00:02.04
     Peak level 97.9 %
     Track quality 100.0 %
     Test CRC B0007181
     Copy CRC B0007181
     Accurately ripped (confidence 1)  [813E932E]
     Copy OK
Track 18
     Filename E:\Rips\18 - Tiger Rag.wav
     Pre-gap length  0:00:01.69
     Peak level 97.9 %
     Track quality 99.9 %
     Test CRC 82469EBC
     Copy CRC 82469EBC
     Accurately ripped (confidence 1)  [E24281BD]
     Copy OK
Track 19
     Filename E:\Rips\19 - Sweet Emaline, My Gal.wav
     Pre-gap length  0:00:02.02
     Peak level 95.5 %
     Track quality 100.0 %
     Test CRC 8F62854D
     Copy CRC 8F62854D
     Accurately ripped (confidence 1)  [C35D9586]
     Copy OK
Track 20
     Filename E:\Rips\20 - Emaline.wav
     Pre-gap length  0:00:01.73
     Peak level 96.4 %
     Track quality 100.0 %
     Test CRC 47372FEA
     Copy CRC 47372FEA
     Accurately ripped (confidence 1)  [DE73E9CA]
     Copy OK
Track 21
     Filename E:\Rips\21 - Moonglow.wav
     Pre-gap length  0:00:01.89
     Peak level 90.1 %
     Track quality 100.0 %
     Test CRC 6AC30618
     Copy CRC 6AC30618
     Accurately ripped (confidence 1)  [0FB3A17D]
     Copy OK
Track 22
     Filename E:\Rips\22 - Love Me.wav
     Pre-gap length  0:00:01.90
     Peak level 96.7 %
     Track quality 100.0 %
     Test CRC 00C59DE4
     Copy CRC 00C59DE4
     Accurately ripped (confidence 1)  [017C2095]
     Copy OK
Track 23
     Filename E:\Rips\23 - Cocktails For You.wav
     Pre-gap length  0:00:02.06
     Peak level 97.9 %
     Track quality 100.0 %
     Test CRC 55C8E55C
     Copy CRC 55C8E55C
     Accurately ripped (confidence 1)  [DDAD4B50]
     Copy OK
Track 24
     Filename E:\Rips\24 - St. Louis Blues.wav
     Pre-gap length  0:00:01.46
     Peak level 97.9 %
     Track quality 99.9 %
     Test CRC CCD5A059
     Copy CRC CCD5A059
     Accurately ripped (confidence 1)  [3E366E15]
     Copy OK
All tracks accurately ripped
No errors occurred
End of status report
Содержание индексной карты (.CUE)
REM GENRE Jazz
REM DATE 1991
REM DISCID 43109C18
REM COMMENT "ExactAudioCopy v0.99pb5"
FILE "01. Liza.flac" WAVE
  TRACK 01 AUDIO
    PREGAP 00:00:33
    INDEX 01 00:00:00
  TRACK 02 AUDIO
    INDEX 00 03:07:62
FILE "02. Take Me Back To My Boots And Saddle.flac" WAVE
    INDEX 01 00:00:00
  TRACK 03 AUDIO
    INDEX 00 03:08:02
FILE "03. Body And Soul.flac" WAVE
    INDEX 01 00:00:00
  TRACK 04 AUDIO
    INDEX 00 03:07:20
FILE "04. With Plenty Of Money And You.flac" WAVE
    INDEX 01 00:00:00
  TRACK 05 AUDIO
    INDEX 00 02:41:47
FILE "05. What Will I Tell My Heart.flac" WAVE
    INDEX 01 00:00:00
  TRACK 06 AUDIO
    INDEX 00 03:07:20
FILE "06. I've Got My Love To Keep Me Warm.flac" WAVE
    INDEX 01 00:00:00
  TRACK 07 AUDIO
    INDEX 00 03:01:20
FILE "07. Gone With The Wind.flac" WAVE
    INDEX 01 00:00:00
  TRACK 08 AUDIO
    INDEX 00 02:51:30
FILE "08. Stormy Weather.flac" WAVE
    INDEX 01 00:00:00
  TRACK 09 AUDIO
    INDEX 00 03:11:47
FILE "09. Chlo-E.flac" WAVE
    INDEX 01 00:00:00
  TRACK 10 AUDIO
    INDEX 00 03:24:30
FILE "10. The Sheik Of Araby.flac" WAVE
    INDEX 01 00:00:00
  TRACK 11 AUDIO
    INDEX 00 02:42:27
FILE "11. Tea For Two.flac" WAVE
    INDEX 01 00:00:00
  TRACK 12 AUDIO
    INDEX 00 02:37:30
FILE "12. Deep Purple.flac" WAVE
    INDEX 01 00:00:00
  TRACK 13 AUDIO
    INDEX 00 03:18:30
FILE "13. Elegie.flac" WAVE
    INDEX 01 00:00:00
  TRACK 14 AUDIO
    INDEX 00 03:15:20
FILE "14. Humoresque.flac" WAVE
    INDEX 01 00:00:00
  TRACK 15 AUDIO
    INDEX 00 03:04:55
FILE "15. Sweet Lorraine.flac" WAVE
    INDEX 01 00:00:00
  TRACK 16 AUDIO
    INDEX 00 03:01:13
FILE "16. Get Happy.flac" WAVE
    INDEX 01 00:00:00
  TRACK 17 AUDIO
    INDEX 00 02:44:62
FILE "17. Lullaby Of The Leaves.flac" WAVE
    INDEX 01 00:00:00
  TRACK 18 AUDIO
    INDEX 00 03:06:25
FILE "18. Tiger Rag.flac" WAVE
    INDEX 01 00:00:00
  TRACK 19 AUDIO
    INDEX 00 02:14:08
FILE "19. Sweet Emaline, My Gal.flac" WAVE
    INDEX 01 00:00:00
  TRACK 20 AUDIO
    INDEX 00 02:59:05
FILE "20. Emaline.flac" WAVE
    INDEX 01 00:00:00
  TRACK 21 AUDIO
    INDEX 00 02:20:73
FILE "21. Moonglow.flac" WAVE
    INDEX 01 00:00:00
  TRACK 22 AUDIO
    INDEX 00 02:58:35
FILE "22. Love Me.flac" WAVE
    INDEX 01 00:00:00
  TRACK 23 AUDIO
    INDEX 00 02:43:40
FILE "23. Cocktails For You.flac" WAVE
    INDEX 01 00:00:00
  TRACK 24 AUDIO
    INDEX 00 02:49:55
FILE "24. St. Louis Blues.flac" WAVE
    INDEX 01 00:00:00
Any questions - support@pro-jazz.com. Есть вопросы - support@pro-jazz.com
01:12
179
Нет комментариев. Ваш будет первым!