Поиск

1987 Spike Robinson & Al Cohn - Once In A Wild {Capri} [CD]

1987 Spike Robinson & Al Cohn - Once In A Wild {Capri} [CD]
Стили:
Дата издания диска:
1 ноября 1987
Номер по каталогу:
1061787
Носитель:
CD
Тип рипа:
image+.cue
Аудиокодек:
FLAC (*.flac)
Битрейт аудио:
lossless
Время звучания:
01:07:01
Наличие сканов:
да
Страна-производитель диска (релиза):
Japan
Релизёр (источник):
Vedamir7498
Лог создания рипа
Exact Audio Copy V1.0 beta 3 from 29. August 2011

Отчёт EAC об извлечении, выполненном 31. июля 2019, 23:30

Spike Robinson & Al Cohn / Henry B. Meets Alvin G. - Once In A Wild

Дисковод: ASUS    DRW-24B5ST   Adapter: 2  ID: 0

Режим чтения                 : Достоверность
Использование точного потока : Да
Отключение кэша аудио        : Да
Использование указателей C2  : Нет

Коррекция смещения при чтении                     : 6
Способность читать области Lead-in и Lead-out     : Нет
Заполнение пропущенных сэмплов тишиной            : Да
Удаление блоков с тишиной в начале и конце        : Нет
При вычислениях CRC использовались нулевые сэмплы : Да
Интерфейс                                         : Встроенный Win32-интерфейс для Win NT/2000

Выходной формат          : Пользовательский кодировщик
Выбранный битрейт        : 128 kBit/s
Качество                 : Высокий
Добавление ID3-тега      : Нет
Утилита сжатия           : C:\Program Files (x86)\Monkey's Audio\MAC.exe
Дополнительные параметры : %source% %dest% -c3000

TOC извлечённого CD

     Трек |   Старт  | Длительность | Начальный сектор | Конечный сектор
    ---------------------------------------------------------------------
       1  |  0:00.00 |    6:16.70   |           0      |      28269
       2  |  6:16.70 |   10:26.70   |       28270      |      75289
       3  | 16:43.65 |    7:22.10   |       75290      |     108449
       4  | 24:06.00 |    5:35.35   |      108450      |     133609
       5  | 29:41.35 |    7:19.13   |      133610      |     166547
       6  | 37:00.48 |    5:52.20   |      166548      |     192967
       7  | 42:52.68 |    5:52.72   |      192968      |     219439
       8  | 48:45.65 |   10:20.13   |      219440      |     265952
       9  | 59:06.03 |    7:55.27   |      265953      |     301604

Характеристики диапазона извлечения и сообщения об ошибках

Выбранный диапазон

     Имя файла C:\Users\Admin\Desktop\APE\Spike Robinson & Al Cohn - Henry B. Meets Alvin G. - Once In A Wild.wav

     Пиковый уровень 100.0 %
     Скорость извлечения 2.0 X
     Качество диапазона 100.0 %
     CRC теста 1958B9C8
     CRC копии 1958B9C8
     Копирование... OK

Ошибок не произошло

AccurateRip: сводка

Трек  1  : извлечено точно (доверие 1)  [E4EEFE99]  (AR v2)
Трек  2  : извлечено точно (доверие 1)  [CBF8C32B]  (AR v2)
Трек  3  : извлечено точно (доверие 1)  [6A4BC4FD]  (AR v2)
Трек  4  : извлечено точно (доверие 1)  [3236A2DC]  (AR v2)
Трек  5  : извлечено точно (доверие 1)  [48A52D29]  (AR v2)
Трек  6  : извлечено точно (доверие 1)  [2E711D63]  (AR v2)
Трек  7  : извлечено точно (доверие 1)  [B68B67E0]  (AR v2)
Трек  8  : извлечено точно (доверие 1)  [C5ACF931]  (AR v2)
Трек  9  : извлечено точно (доверие 1)  [8B877A06]  (AR v2)

Все треки извлечены точно

Конец отчёта

==== Контрольная сумма отчёта F47ACA4579046DCFCA01675AC20B53B7B949621A0FC763E3E1BF2AFD826F5B6E ====
No seeders - write personal message to M0p94ok. Any questions - support@pro-jazz.com.
Нет сидеров - пишите в личку M0p94ok. Есть вопросы - support@pro-jazz.com
13:43
47
Нет комментариев. Ваш будет первым!