Поиск

1988 Claude Tissendier feat. Benny Carter - Saxomania {IDA} [CD]

1988 Claude Tissendier feat. Benny Carter - Saxomania {IDA} [CD]
Стили:
Битрейт аудио:
lossless
Доп. инфо:

Носитель: CD
Страна-производитель диска (релиза): France
Год издания: 1988
Издатель (лейбл): IDA Records
Номер по каталогу: IDA 017 CD
Страна исполнителя (группы): France
Аудиокодек: Flac (*.flac)
Тип рипа: image+.cue
Продолжительность: 00:54:36
Наличие сканов в содержимом раздачи: нет

Лог создания рипа
Exact Audio Copy V1.0 beta 3 from 29. August 2011

Отчёт EAC об извлечении, выполненном 31. июля 2019, 21:38

Claude Tissendier / Saxomania - Featuring Benny Carter

Дисковод: ASUS    DRW-24B5ST   Adapter: 2  ID: 0

Режим чтения                 : Достоверность
Использование точного потока : Да
Отключение кэша аудио        : Да
Использование указателей C2  : Нет

Коррекция смещения при чтении                     : 6
Способность читать области Lead-in и Lead-out     : Нет
Заполнение пропущенных сэмплов тишиной            : Да
Удаление блоков с тишиной в начале и конце        : Нет
При вычислениях CRC использовались нулевые сэмплы : Да
Интерфейс                                         : Встроенный Win32-интерфейс для Win NT/2000

Выходной формат          : Пользовательский кодировщик
Выбранный битрейт        : 128 kBit/s
Качество                 : Высокий
Добавление ID3-тега      : Нет
Утилита сжатия           : C:\Program Files (x86)\Monkey's Audio\MAC.exe
Дополнительные параметры : %source% %dest% -c3000

TOC извлечённого CD

     Трек |   Старт  | Длительность | Начальный сектор | Конечный сектор
    ---------------------------------------------------------------------
       1  |  0:00.33 |    4:55.67   |          33      |      22224
       2  |  4:56.25 |    4:46.10   |       22225      |      43684
       3  |  9:42.35 |    5:11.58   |       43685      |      67067
       4  | 14:54.18 |    4:21.50   |       67068      |      86692
       5  | 19:15.68 |    3:45.25   |       86693      |     103592
       6  | 23:01.18 |    5:38.65   |      103593      |     129007
       7  | 28:40.08 |    3:38.07   |      129008      |     145364
       8  | 32:18.15 |    4:18.20   |      145365      |     164734
       9  | 36:36.35 |    3:49.60   |      164735      |     181969
      10  | 40:26.20 |    4:18.65   |      181970      |     201384
      11  | 44:45.10 |    4:22.48   |      201385      |     221082
      12  | 49:07.58 |    5:28.50   |      221083      |     245732

Характеристики диапазона извлечения и сообщения об ошибках

Выбранный диапазон

     Имя файла C:\Users\Admin\Desktop\APE\Claude Tissendier - Saxomania - Featuring Benny Carter.wav

     Пиковый уровень 90.8 %
     Скорость извлечения 1.9 X
     Качество диапазона 100.0 %
     CRC теста 27202798
     CRC копии 27202798
     Копирование... OK

Ошибок не произошло

AccurateRip: сводка

Трек  1  : извлечено точно (доверие 1)  [A8206D8B]  (AR v1)
Трек  2  : извлечено точно (доверие 1)  [48C97BDD]  (AR v1)
Трек  3  : извлечено точно (доверие 1)  [96A5F439]  (AR v1)
Трек  4  : извлечено точно (доверие 1)  [70D2F6BE]  (AR v1)
Трек  5  : извлечено точно (доверие 1)  [49E0466F]  (AR v1)
Трек  6  : извлечено точно (доверие 1)  [F3266951]  (AR v1)
Трек  7  : извлечено точно (доверие 1)  [7686FEF2]  (AR v1)
Трек  8  : извлечено точно (доверие 1)  [D43A497C]  (AR v1)
Трек  9  точность не определена (достоверность 1)  [D6B18097], AccurateRip вернул [D778D87E]  (AR v2)
Трек 10  : извлечено точно (доверие 1)  [2278A119]  (AR v1)
Трек 11  : извлечено точно (доверие 1)  [491F47A8]  (AR v1)
Трек 12  : извлечено точно (доверие 1)  [E46F5495]  (AR v1)

11 трек(и) скопированы точно
 1 трек(и) не удалось проверить на точность

Некоторые треки не прошли проверку на точность

Конец отчёта

==== Контрольная сумма отчёта 88CE4317AFFE52613098D51AEDE2B039D4CFBBD2C5EAD71F63B98E7A646F345D ====
No seeders - write personal message to M0p94ok. Any questions - support@pro-jazz.com.
Нет сидеров - пишите в личку M0p94ok. Есть вопросы - support@pro-jazz.com
16:52
53
Нет комментариев. Ваш будет первым!