Вы используете незарегистрированную версию компонента "Вкладки"!

Поиск

2006 Michel Pastre Quartet - Free Swing {Djaz} [CD]

2006 Michel Pastre Quartet - Free Swing {Djaz} [CD]
Стили:
Дата записи диска:
20 декабря - 21 декабря 2004
Место записи:
UMJ Studio, Paris, France
Номер по каталогу:
DJ 734-2
Носитель:
CD
Тип рипа:
tracks+.cue
Аудиокодек:
FLAC (*.flac)
Битрейт аудио:
lossless
Время звучания:
00:52:43
Наличие сканов:
только обложка
Страна-производитель диска (релиза):
France
Релизёр (источник):
Iegou
Лог создания рипа
Exact Audio Copy V1.0 beta 3 from 29. August 2011

EAC extraction logfile from 12. October 2014, 10:33

Michel Pastre Quartet / Free Swing

Used drive  : TSSTcorpCDDVDW SH-S223C   Adapter: 3  ID: 0

Read mode               : Secure
Utilize accurate stream : Yes
Defeat audio cache      : Yes
Make use of C2 pointers : No

Read offset correction                      : 697
Overread into Lead-In and Lead-Out          : No
Fill up missing offset samples with silence : Yes
Delete leading and trailing silent blocks   : No
Null samples used in CRC calculations       : Yes
Used interface                              : Native Win32 interface for Win NT & 2000
Gap handling                                : Appended to previous track

Used output format              : User Defined Encoder
Selected bitrate                : 1024 kBit/s
Quality                         : High
Add ID3 tag                     : No
Command line compressor         : C:\Program Files (x86)\Exact Audio Copy\Flac\flac.exe
Additional command line options :  -8 -V -T "ARTIST=%artist%" -T "TITLE=%title%" -T "ALBUM=%albumtitle%" -T "DATE=%year%" -T "TRACKNUMBER=%tracknr%" -T "GENRE=%genre%" -T "PERFORMER=%albuminterpret%" -T "COMPOSER=%composer%" %haslyrics%--tag-from-file=LYRICS="%lyricsfile%"%haslyrics% -T "ALBUMARTIST=%albumartist%" -T "DISCNUMBER=%cdnumber%" -T "TOTALDISCS=%totalcds%" -T "TOTALTRACKS=%numtracks%" -T "COMMENT=%comment%" %source% -o %dest%

TOC of the extracted CD

     Track |   Start  |  Length  | Start sector | End sector
    ---------------------------------------------------------
        1  |  0:00.00 |  3:55.00 |         0    |    17624
        2  |  3:55.00 |  5:01.00 |     17625    |    40199
        3  |  8:56.00 |  5:17.00 |     40200    |    63974
        4  | 14:13.00 |  6:08.00 |     63975    |    91574
        5  | 20:21.00 |  5:56.00 |     91575    |   118274
        6  | 26:17.00 |  5:30.00 |    118275    |   143024
        7  | 31:47.00 |  5:58.00 |    143025    |   169874
        8  | 37:45.00 |  8:37.00 |    169875    |   208649
        9  | 46:22.00 |  4:15.00 |    208650    |   227774
       10  | 50:37.00 |  2:06.00 |    227775    |   237224

Track  1

     Filename D:\EAC Rips\Michel Pastre Quartet - Free Swing (2004)\01 - Midriff.wav

     Pre-gap length  0:00:02.00

     Peak level 94.4 %
     Extraction speed 1.9 X
     Track quality 100.0 %
     Test CRC AF7989B5
     Copy CRC AF7989B5
     Track not present in AccurateRip database
     Copy OK

Track  2

     Filename D:\EAC Rips\Michel Pastre Quartet - Free Swing (2004)\02 - Tulip or turnip.wav

     Pre-gap length  0:00:02.00

     Peak level 94.4 %
     Extraction speed 2.2 X
     Track quality 100.0 %
     Test CRC A1BE1354
     Copy CRC A1BE1354
     Track not present in AccurateRip database
     Copy OK

Track  3

     Filename D:\EAC Rips\Michel Pastre Quartet - Free Swing (2004)\03 - Free swing.wav

     Pre-gap length  0:00:02.00

     Peak level 94.4 %
     Extraction speed 2.5 X
     Track quality 100.0 %
     Test CRC F021FE92
     Copy CRC F021FE92
     Track not present in AccurateRip database
     Copy OK

Track  4

     Filename D:\EAC Rips\Michel Pastre Quartet - Free Swing (2004)\04 - Webstering.wav

     Pre-gap length  0:00:02.00

     Peak level 94.4 %
     Extraction speed 2.8 X
     Track quality 100.0 %
     Test CRC A349A7E1
     Copy CRC A349A7E1
     Track not present in AccurateRip database
     Copy OK

Track  5

     Filename D:\EAC Rips\Michel Pastre Quartet - Free Swing (2004)\05 - Hiawatha.wav

     Pre-gap length  0:00:02.00

     Peak level 94.4 %
     Extraction speed 3.0 X
     Track quality 100.0 %
     Test CRC ACBC5D10
     Copy CRC ACBC5D10
     Track not present in AccurateRip database
     Copy OK

Track  6

     Filename D:\EAC Rips\Michel Pastre Quartet - Free Swing (2004)\06 - Morning glory.wav

     Pre-gap length  0:00:02.00

     Peak level 94.4 %
     Extraction speed 0.6 X
     Track quality 99.9 %
     Test CRC C86FFFF1
     Copy CRC C86FFFF1
     Track not present in AccurateRip database
     Copy OK

Track  7

     Filename D:\EAC Rips\Michel Pastre Quartet - Free Swing (2004)\07 - Sophisticated lady.wav

     Pre-gap length  0:00:02.00

     Peak level 94.4 %
     Extraction speed 3.4 X
     Track quality 100.0 %
     Test CRC 9F5DC92E
     Copy CRC 9F5DC92E
     Track not present in AccurateRip database
     Copy OK

Track  8

     Filename D:\EAC Rips\Michel Pastre Quartet - Free Swing (2004)\08 - Kinda dukish , rockin' in rythm.wav

     Pre-gap length  0:00:02.00

     Peak level 94.5 %
     Extraction speed 3.8 X
     Track quality 100.0 %
     Test CRC 7B118FA0
     Copy CRC 7B118FA0
     Track not present in AccurateRip database
     Copy OK

Track  9

     Filename D:\EAC Rips\Michel Pastre Quartet - Free Swing (2004)\09 - What am I here for.wav

     Pre-gap length  0:00:02.00

     Peak level 94.4 %
     Extraction speed 3.6 X
     Track quality 100.0 %
     Test CRC 2187EFFF
     Copy CRC 2187EFFF
     Track not present in AccurateRip database
     Copy OK

Track 10

     Filename D:\EAC Rips\Michel Pastre Quartet - Free Swing (2004)\10 - Lazy rhapsody.wav

     Pre-gap length  0:00:02.00

     Peak level 94.4 %
     Extraction speed 3.3 X
     Track quality 100.0 %
     Test CRC 9B44E145
     Copy CRC 9B44E145
     Track not present in AccurateRip database
     Copy OK

None of the tracks are present in the AccurateRip database

No errors occurred

End of status report

---- CUETools DB Plugin V2.1.3

[CTDB TOCID: .RT1YeSJlI.XHhH9OSXwvQoDzxA-] disk not present in database, Submit result: .RT1YeSJlI.XHhH9OSXwvQoDzxA- has been uploaded

==== Log checksum DFAEAF07C93797B5677B05612C5AF76017A90492BF0FBADF203B5C7683CBD5E1 ====
Any questions - support@pro-jazz.com. Есть вопросы - support@pro-jazz.com
16:21
58
Нет комментариев. Ваш будет первым!