Вы используете незарегистрированную версию компонента "Вкладки"!

Поиск

1982 Michel Petrucciani Trio - Estate (2005) {IRD} [DST64]

1982 Michel Petrucciani Trio - Estate (2005) {IRD} [DST64]
Дата записи диска:
29 марта - 30 мая, 16 апреля, 5 мая 1982
Место записи:
Forum Rec. Studio, Rome, Italy
Битрейт аудио:
lossless
Доп. инфо:

Формат записи/Источник записи: [SACD-R][OF]
Наличие водяных знаков: Нет
Год издания/переиздания диска: 1982/2005
Издатель (лейбл): IRD Records
Продолжительность: 00:33:51
Наличие сканов в содержимом раздачи: Да (сканы)

Контейнер: ISO (*.iso)
Тип рипа: image
Разрядность: 64 (2,8 MHz/1 Bit)
Формат: DST64
Количество каналов: 5.1, 2.0

За предоставленный материал спасибо: ehondik

Лог проверки качества
foobar2000 1.4.6 / Замер динамического диапазона (DR) 1.1.1
Дата отчёта:  2019-09-13 21:19:42

--------------------------------------------------------------------------------
Анализ:   Michel Petrucciani Trio / Estate
--------------------------------------------------------------------------------

DR         Пики         RMS           Продолжительность трека
--------------------------------------------------------------------------------
DR12      -5.86 дБ   -24.40 дБ      5:29 01-Pasolini
DR13      -5.76 дБ   -25.73 дБ      4:55 02-Very Early
DR15      -9.35 дБ   -32.23 дБ      5:46 03-Estate
DR12      -5.99 дБ   -24.81 дБ      3:45 04-Maybe Yes
DR14      -6.24 дБ   -29.25 дБ      6:19 05-I Just Say Hello
DR12      -5.90 дБ   -24.42 дБ      4:11 06-Tone Poem
DR12      -5.95 дБ   -23.48 дБ      3:25 07-Samba Des Prophètes
--------------------------------------------------------------------------------

Количество треков: 7
Реальные значения DR: DR13

Частота:   2822400 Гц / Частота PCM: 88200 Гц
Каналов:   6
Разрядность:   1
Битрейт:   16934 кбит/с
Кодек:   DST64
================================================================================

--------------------------------------------------------------------------------
Анализ:   Michel Petrucciani Trio / Estate
--------------------------------------------------------------------------------

DR         Пики         RMS           Продолжительность трека
--------------------------------------------------------------------------------
DR13      -6.50 дБ   -23.41 дБ      5:29 01-Pasolini
DR14      -5.96 дБ   -24.71 дБ      4:55 02-Very Early
DR16     -11.90 дБ   -31.21 дБ      5:46 03-Estate
DR12      -8.09 дБ   -23.79 дБ      3:45 04-Maybe Yes
DR15      -8.79 дБ   -28.21 дБ      6:19 05-I Just Say Hello
DR13      -7.04 дБ   -23.39 дБ      4:11 06-Tone Poem
DR13      -7.10 дБ   -22.40 дБ      3:25 07-Samba Des Prophètes
--------------------------------------------------------------------------------

Количество треков: 7
Реальные значения DR: DR14

Частота:   2822400 Гц / Частота PCM: 88200 Гц
Каналов:   2
Разрядность:   1
Битрейт:   5645 кбит/с
Кодек:   DST64
================================================================================
Any questions - support@pro-jazz.com. Есть вопросы - support@pro-jazz.com
13:30
374
Нет комментариев. Ваш будет первым!