Поиск

2004 VA - Concord Jazz Super Audio CD Sampler Vol. 2 {Concord} [DST64]

2004 VA - Concord Jazz Super Audio CD Sampler Vol. 2 {Concord} [DST64]
Издатель (лейбл):
Битрейт аудио:
lossless
Доп. инфо:

Формат записи/Источник записи: [SACD-R][OF]
Наличие водяных знаков: Нет
Год издания/переиздания диска: 2004
Продолжительность: 01:03:07
Наличие сканов в содержимом раздачи: Да (сканы)

Контейнер: ISO (*.iso)
Тип рипа: image
Разрядность: 64(2,8 MHz/1 Bit)
Формат: DST64
Количество каналов: 5.1, 2.0

Лог проверки качества
foobar2000 1.4.6 / Замер динамического диапазона (DR) 1.1.1
Дата отчёта:  2019-09-17 19:01:37

--------------------------------------------------------------------------------
Анализ:   Various / Concord Jazz Super Audio CD Sampler Vol. 2
--------------------------------------------------------------------------------

DR         Пики         RMS           Продолжительность трека
--------------------------------------------------------------------------------
DR15      -6.26 дБ   -25.72 дБ      4:06 01-Reggae - Later
DR15      -6.42 дБ   -27.03 дБ      4:15 02-Nature Boy
DR16      -6.43 дБ   -30.81 дБ      7:34 03-The Real Blues
DR12      -6.63 дБ   -26.29 дБ      4:48 04-Seven, Come Eleven
DR14      -8.16 дБ   -30.59 дБ      7:28 05-Goodbye Mr. Evans
DR12      -9.32 дБ   -31.08 дБ      4:02 06-The Waters of March
DR13      -5.94 дБ   -23.97 дБ      4:16 07-Whatcha Gonna Do
DR13      -9.29 дБ   -27.27 дБ      4:20 08-It Don't Mean A Thing If It Ain't Got That Swing
DR14      -7.02 дБ   -26.75 дБ      6:09 09-Funk Pie
DR13      -7.21 дБ   -27.21 дБ      4:17 10-No Moon At All
DR14      -5.06 дБ   -27.73 дБ      5:21 11-Elucidation
DR14     -10.62 дБ   -32.48 дБ      6:30 12-Silent Pool
--------------------------------------------------------------------------------

Количество треков: 12
Реальные значения DR: DR14

Частота:   2822400 Гц / Частота PCM: 88200 Гц
Каналов:   6
Разрядность:   1
Битрейт:   16934 кбит/с
Кодек:   DST64
================================================================================

--------------------------------------------------------------------------------
Анализ:   Various / Concord Jazz Super Audio CD Sampler Vol. 2
--------------------------------------------------------------------------------

DR         Пики         RMS           Продолжительность трека
--------------------------------------------------------------------------------
DR13      -6.21 дБ   -21.30 дБ      4:06 01-Reggae - Later
DR13      -6.56 дБ   -22.27 дБ      4:15 02-Nature Boy
DR11      -6.13 дБ   -21.42 дБ      7:34 03-The Real Blues
DR11      -6.46 дБ   -19.83 дБ      4:48 04-Seven, Come Eleven
DR14      -6.61 дБ   -23.96 дБ      7:28 05-Goodbye Mr. Evans
DR13     -10.56 дБ   -28.32 дБ      4:02 06-The Waters of March
DR10      -6.04 дБ   -18.79 дБ      4:16 07-Whatcha Gonna Do
DR12      -7.26 дБ   -23.51 дБ      4:20 08-It Don't Mean A Thing If It Ain't Got That Swing
DR14      -6.67 дБ   -22.74 дБ      6:09 09-Funk Pie
DR14      -7.53 дБ   -23.77 дБ      4:17 10-No Moon At All
DR14      -6.34 дБ   -22.39 дБ      5:21 11-Elucidation
DR14      -9.68 дБ   -26.83 дБ      6:30 12-Silent Pool
--------------------------------------------------------------------------------

Количество треков: 12
Реальные значения DR: DR13

Частота:   2822400 Гц / Частота PCM: 88200 Гц
Каналов:   2
Разрядность:   1
Битрейт:   5645 кбит/с
Кодек:   DST64
================================================================================
No seeders - write personal message to M0p94ok. Any questions - support@pro-jazz.com.
Нет сидеров - пишите в личку M0p94ok. Есть вопросы - support@pro-jazz.com
15:09
210
Нет комментариев. Ваш будет первым!