Поиск

2020 Bendik Hofseth - Trunks {C+C CCD068} [24-96]

2020 Bendik Hofseth - Trunks {C+C CCD068} [24-96]
Стили:
Место записи:
Blueberry Fields, Oslo, Norway; Rainbow Studio, Oslo, Norway; Fersk Lyd, Oslo, Norway
Дата издания диска:
30 июля 2020
Номер по каталогу:
CCD 068
Носитель:
WEB
Формат:
PCM
Тип рипа:
tracks+.cue
Контейнер:
APE (*.ape)
Количество каналов:
2.0
Разрядность/ЧД:
24/96
Битрейт аудио:
lossless
Время звучания:
00:38:41
Наличие сканов:
web
Страна-производитель диска (релиза):
Norway
Релизёр (источник):
M0p94ok
Лог проверки качества
foobar2000 1.5.5 / Dynamic Range Meter 1.1.1
log date: 2020-12-07 15:06:55

--------------------------------------------------------------------------------
Analyzed: Bendik Hofseth / Trunks
--------------------------------------------------------------------------------

DR         Peak         RMS     Duration Track
--------------------------------------------------------------------------------
DR13      -0.30 dB   -17.16 dB      4:42 01-Maple (for Per Oddvar)
DR13      -0.30 dB   -15.97 dB      5:24 02-Bamboo (for Christer)
DR13      -0.30 dB   -17.81 dB      4:51 03-Cambium (for Helge)
DR14      -0.30 dB   -18.28 dB      4:32 04-Norway Spruce (for Mats)
DR9       -0.30 dB   -13.08 dB      7:22 05-Heartwood (for Michael)
DR14      -0.30 dB   -18.16 dB      5:49 06-Sapwood (for Evalill)
DR13      -0.30 dB   -17.75 dB      6:05 07-Bark (for Eivind)
--------------------------------------------------------------------------------

Number of tracks:  7
Official DR value: DR13

Samplerate:        96000 Hz
Channels:          2
Bits per sample:   24
Bitrate:           2649 kbps
Codec:             FLAC
================================================================================
No seeders - write personal message to M0p94ok. Any questions - support@pro-jazz.com.
Нет сидеров - пишите в личку M0p94ok. Есть вопросы - support@pro-jazz.com
16:25
199
Нет комментариев. Ваш будет первым!