Поиск

2004 Till Brönner - That Summer {Universal} [DST64]

2004 Till Brönner - That Summer {Universal} [DST64]
Место записи:
Nucleus Tonstudio, Berlin, Germany
Дата издания диска:
23 июня 2004
Издатель (лейбл):
Битрейт аудио:
lossless

Треклист:

01. Your Way To Say Goodbye
02. Bein' Green
03. High Falls
04. When Your Lover Has Gone
05. Estrada Branca
06. Antonio's Song
07. Ready Or Not
08. After Hours
09. So Right, So Wrong
10. Wishing Well
11. Rising Star
12. Eleanor Rigby (Bonus Track)
13. DR.Bill (Secret Track)

Доп. инфо:

Формат записи/Источник записи: [SACD-R][OF]
Наличие водяных знаков: Нет
Год издания/переиздания диска: 2004
Продолжительность: 01:02:10
Наличие сканов в содержимом раздачи: Да (сканы)

Контейнер: ISO (*.iso)
Тип рипа: image
Разрядность: 64(2,8 MHz/1 Bit)
Формат: DST64
Количество каналов: 5.1, 2.0

За предоставленный материал спасибо: ehondik

Лог проверки качества
foobar2000 1.4.6 / Замер динамического диапазона (DR) 1.1.1
Дата отчёта:  2019-09-17 18:36:23

--------------------------------------------------------------------------------
Анализ:   Till Brönner / That Summer
--------------------------------------------------------------------------------

DR         Пики         RMS           Продолжительность трека
--------------------------------------------------------------------------------
DR12      -4.02 дБ   -22.66 дБ      3:25 01-Your Way To Say Goodbye
DR11      -4.66 дБ   -22.36 дБ      4:12 02-Bein' Green
DR12      -4.28 дБ   -21.23 дБ      4:43 03-High Falls
DR13      -3.80 дБ   -21.03 дБ      5:32 04-When Your Lover Has Gone
DR13      -5.27 дБ   -23.59 дБ      3:33 05-Estrada Branca
DR13      -4.01 дБ   -22.18 дБ      4:59 06-Antonio's Song
DR12      -3.91 дБ   -21.77 дБ      5:10 07-Ready Or Not
DR13      -5.51 дБ   -25.19 дБ      5:13 08-After Hours
DR12      -4.31 дБ   -22.58 дБ      3:53 09-So Right, So Wrong
DR12      -5.04 дБ   -25.17 дБ      3:53 10-Wishing Well
DR12      -4.90 дБ   -22.94 дБ      4:44 11-Rising Star
DR13      -4.28 дБ   -22.80 дБ     12:52 12-Eleanor Rigby
--------------------------------------------------------------------------------

Количество треков: 12
Реальные значения DR: DR12

Частота:   2822400 Гц / Частота PCM: 88200 Гц
Каналов:   6
Разрядность:   1
Битрейт:   16934 кбит/с
Кодек:   DST64
================================================================================

--------------------------------------------------------------------------------
Анализ:   Till Brönner / That Summer
--------------------------------------------------------------------------------

DR         Пики         RMS           Продолжительность трека
--------------------------------------------------------------------------------
DR13      -2.67 дБ   -18.40 дБ      3:25 01-Your Way To Say Goodbye
DR13      -5.48 дБ   -21.05 дБ      4:12 02-Bein' Green
DR14      -2.49 дБ   -19.46 дБ      4:43 03-High Falls
DR13      -3.20 дБ   -19.33 дБ      5:32 04-When Your Lover Has Gone
DR14      -2.22 дБ   -18.47 дБ      3:33 05-Estrada Branca
DR13      -4.35 дБ   -18.88 дБ      4:59 06-Antonio's Song
DR13      -2.65 дБ   -19.34 дБ      5:10 07-Ready Or Not
DR13      -3.44 дБ   -20.46 дБ      5:13 08-After Hours
DR12      -3.99 дБ   -19.13 дБ      3:53 09-So Right, So Wrong
DR13      -4.55 дБ   -21.99 дБ      3:53 10-Wishing Well
DR12      -4.13 дБ   -18.90 дБ      4:44 11-Rising Star
DR13      -3.91 дБ   -20.78 дБ     12:52 12-Eleanor Rigby
--------------------------------------------------------------------------------

Количество треков: 12
Реальные значения DR: DR13

Частота:   2822400 Гц / Частота PCM: 88200 Гц
Каналов:   2
Разрядность:   1
Битрейт:   5645 кбит/с
Кодек:   DST64
================================================================================
Приватный:
Нет (DHT включён)
Размер:
3.89 Гб (4,179,502,257 байт) » файлов: 10
Участники:
3 раздают, 0 качают (3 участников всего)
Внешние участники:
7 раздают, 2 качают (9 участников всего) [ Обновить ]
No seeders - write personal message to M0p94ok. Any questions - support@pro-jazz.com.
Нет сидеров - пишите в личку M0p94ok. Есть вопросы - support@pro-jazz.com
16:46
181
Нет комментариев. Ваш будет первым!