Поиск

2019 Alexander Hawkins - Iron Into Wind {Intakt} [24-48]

2019 Alexander Hawkins - Iron Into Wind {Intakt} [24-48]
Дата записи диска:
22 сентября, 23 сентября 2018
Место записи:
Radio Studio, Zürich, Switzerland
Дата издания диска:
8 февраля 2019
Издатель (лейбл):
Номер по каталогу:
Intakt CD 330
Носитель:
WEB
Формат:
PCM
Тип рипа:
tracks+.cue
Контейнер:
APE (*.ape)
Количество каналов:
2.0
Разрядность/ЧД:
24/48
Битрейт аудио:
lossless
Время звучания:
00:57:05
Наличие сканов:
web
Страна-производитель диска (релиза):
UK
Релизёр (источник):
M0p94ok
Доп. инфо:

Александр Хокинс является творческим эпицентром Лондонской джазовой сцены и считается в Великобритании одним из самых новаторских музыкантов молодого поколения с удивительным радиусом действия. Он играет с Эваном Паркером, Вададой Лео Смитом, Тейлором Хо Байнумом, Луисом Мохоло, Шабакой Хатчингсом и Элейн Митченер. "Железо в Ветер" - так называется его новое фортепианное Соло. Фраза "железо в ветер" вызывает у него и мимолетность импровизации, и увлечение твердым материалом, представленным мощными звуковыми блоками, которые можно услышать в некоторых из этих пьес. Ричард Виллимас пишет в примечаниях к вкладышу: "настроение варьируется от двуручных авангардных евангельских фигур “Конгрегации “до стремительного” этюда “через суровые размышления” Tumble Mono“, узловатый блюз” Strange Courage “и взрывные ускорения” It Should Be A Song“, с отвлечением, в” приятном созвездии“, путем вариаций на элемент из”судьбы в приятном настроении" Сан Ра. Здесь он достигает тонкого баланса всех своих интересов, создавая автопортрет удивительно изобретательного современного музыканта.“

All compositions by Alexander Hawkins (PRS). Recorded September 22, 23, 2018, by Martin Pearson at Radio Studio, Zürich, in cooperation with Radio SRF 2 Kultur. Mixed and mastered by Michael Brändli at Hardstudios, Winterthur. Cover art and design: Jonas Schoder. Liner notes: Richard Williams, Photos: Michelle Ettlin. Produced and published by Intakt Records, Patrik Landolt, Anja Illmaier, Florian Keller. P.O.Box 468, 8024 Zürich, Switzerland

Лог проверки качества
foobar2000 1.3.16 / Dynamic Range Meter 1.1.1
log date: 2019-04-01 18:42:16

--------------------------------------------------------------------------------
Analyzed: Alexander Hawkins / Iron into Wind
--------------------------------------------------------------------------------

DR         Peak         RMS     Duration Track
--------------------------------------------------------------------------------
DR13      -7.18 dB   -26.50 dB      4:27 01-Song All the Way
DR11      -1.30 dB   -15.95 dB      4:27 02-Congregational
DR11      -2.37 dB   -20.36 dB      4:31 03-Tough Like Imagination: Tough like Imagination
DR12      -0.30 dB   -19.07 dB      4:46 04-Pleasant Constellation
DR16      -7.06 dB   -28.36 dB      3:44 05-Gossamer like a Ghost Tree
DR12      -3.84 dB   -19.02 dB      5:30 06-Strange Courage
DR11      -3.27 dB   -19.47 dB      5:35 07-It Should Be a Song
DR12      -0.31 dB   -15.80 dB      3:07 08-Hard As Threads: Hard as Threads
DR12      -1.22 dB   -17.31 dB      6:08 09-Tumble Mono
DR11      -4.13 dB   -19.47 dB      6:14 10-Wander/Wonder
DR12      -4.34 dB   -22.04 dB      4:06 11-We All Bleed
DR11      -1.99 dB   -16.79 dB      4:37 12-Etude
--------------------------------------------------------------------------------

Number of tracks:  12
Official DR value: DR12

Samplerate:        48000 Hz
Channels:          2
Bits per sample:   24
Bitrate:           1300 kbps
Codec:             FLAC
================================================================================
No seeders - write personal message to M0p94ok. Any questions - support@pro-jazz.com.
Нет сидеров - пишите в личку M0p94ok. Есть вопросы - support@pro-jazz.com
20:31
223
Нет комментариев. Ваш будет первым!