Поиск

1981 Benny Goodman - Live in Hamburg (2020 Remastered) {Stockfisch} [24-88,2]

1981 Benny Goodman - Live in Hamburg (2020 Remastered) {Stockfisch} [24-88,2]
Стили:
Дата записи диска:
9 декабря 1981
Место записи:
CCH Hamburg, Germany
Дата издания диска:
19 июня 2020
Номер по каталогу:
SFR 357.4805.2
Битрейт аудио:
lossless

This album is available on our DC++ hub: dc.pro-jazz.com
Этот альбом доступен на нашем DC++ хабе: dc.pro-jazz.com

01 - After You've Gone 05:30
02 - If I Had You 03:07
03 - Avalon 05:03
04 - Careless Love 05:46
05 - The Days of Wine and Roses 06:31
06 - Hush-A-Bye 05:22
07 - Sweet Georgia Brown 05:02
08 - I Want to Be Happy 05:05
09 - Here's That Rainy Day 02:54
10 - Oh, Lady Be Good 04:59
11 - Nuages 06:14
12 - Airmail Special 05:08
13 - On the Sunny Side of the Street 02:59
14 - Don't Be That Way 04:29
15 - Body and Soul 04:21
16 - How High the Moon 03:49
17 - The World Is Waiting for the Sunrise 04:20
18 - Sing, Sing, Sing (With a Swing) 06:55
19 - Goodbye 02:10
20 - It's Easy to Remember 02:20

Состав:
  • Bass – Mads Vinding
  • Clarinet – Benny Goodman
  • Drums – Bjarne Rostvold
  • Guitar – Philip Catherine
  • Mastered By [Premastering By] – Hans-Jörg Maucksch
  • Piano – Claes Crona
  • Recorded By – Günter Pauler
  • Violin, Vibraphone – Svend Asmussen
Лог проверки качества
foobar2000 1.3.16 / Dynamic Range Meter 1.1.1
log date: 2020-08-29 12:53:27

--------------------------------------------------------------------------------
Analyzed: Benny Goodman / Live in Hamburg 1981 (Remastered)
--------------------------------------------------------------------------------

DR         Peak         RMS     Duration Track
--------------------------------------------------------------------------------
DR9       -0.52 dB   -11.32 dB      5:31 01-After You've Gone (Live)
DR11      -1.73 dB   -16.43 dB      3:08 02-If I Had You (Live)
DR10      -0.52 dB   -12.55 dB      5:03 03-Avalon (Live)
DR10      -0.52 dB   -13.58 dB      5:46 04-Careless Love (Live)
DR10      -0.52 dB   -13.20 dB      6:31 05-The Days of Wine and Roses (Live)
DR12      -0.56 dB   -16.42 dB      5:22 06-Hush-A-Bye (Live)
DR10      -0.52 dB   -11.97 dB      5:02 07-Sweet Georgia Brown (Live)
DR11      -0.52 dB   -12.81 dB      5:06 08-I Want to Be Happy (Live)
DR10      -2.82 dB   -16.56 dB      2:54 09-Here's That Rainy Day (Live)
DR9       -0.52 dB   -11.64 dB      4:59 10-Oh, Lady Be Good (Live)
DR13      -2.10 dB   -18.69 dB      6:15 11-Nuages (Live)
DR9       -0.52 dB   -11.08 dB      5:08 12-Airmail Special (Live)
DR12      -0.52 dB   -15.75 dB      2:59 13-On the Sunny Side of the Street (Live)
DR10      -0.52 dB   -12.52 dB      4:30 14-Don't Be That Way (Live)
DR11      -2.25 dB   -15.87 dB      4:21 15-Body and Soul (Live)
DR10      -0.55 dB   -12.62 dB      3:50 16-How High the Moon (Live)
DR9       -0.52 dB   -12.24 dB      4:21 17-The World Is Waiting for the Sunrise (Live)
DR11      -0.52 dB   -13.32 dB      6:56 18-Sing, Sing, Sing (With a Swing) (Live)
DR13      -3.21 dB   -17.95 dB      2:10 19-Goodbye (Live)
DR10      -4.51 dB   -18.39 dB      2:20 20-It's Easy to Remember (Live)
--------------------------------------------------------------------------------

Number of tracks:  20
Official DR value: DR11

Samplerate:        88200 Hz
Channels:          2
Bits per sample:   24
Bitrate:           2601 kbps
Codec:             FLAC
================================================================================
14:21
1005
Нет комментариев. Ваш будет первым!