Вы используете незарегистрированную версию компонента "Вкладки"!

Поиск

2019 Herd, Panu Savolainen - X {Doorbell Music} [24-44,1]

2019 Herd, Panu Savolainen - X {Doorbell Music} [24-44,1]
Стили:
Дата издания диска:
15 февраля 2019
Носитель:
WEB
Формат:
PCM
Тип рипа:
tracks+.cue
Количество каналов:
2.0
Разрядность/ЧД:
24/44,1
Битрейт аудио:
lossless
Время звучания:
00:45:23
Наличие сканов:
web
Релизёр (источник):
M0p94ok
Лог проверки качества
foobar2000 1.3.16 / Dynamic Range Meter 1.1.1
log date: 2019-02-18 15:52:09

--------------------------------------------------------------------------------
Analyzed: Herd / X (1-10)
          Panu Savolainen / X (11)
--------------------------------------------------------------------------------

DR         Peak         RMS     Duration Track
--------------------------------------------------------------------------------
DR9        0.00 dB   -10.54 dB      3:46 01-Music for Situations
DR10      -0.05 dB   -13.49 dB      4:20 02-Closer Together
DR11      -5.25 dB   -22.61 dB      1:45 03-Exit
DR10      -0.05 dB   -14.20 dB      4:46 04-From the Last Page
DR10      -0.09 dB   -13.33 dB      4:46 05-Cold Wind
DR10       0.00 dB   -12.97 dB      4:04 06-Woodpecker´s Dream
DR12      -0.10 dB   -16.32 dB      5:18 07-Clouds
DR11      -0.08 dB   -12.77 dB      1:59 08-Beat
DR11      -0.09 dB   -15.71 dB      5:30 09-Fulham
DR11      -0.06 dB   -12.73 dB      5:13 10-New Beginning
DR11      -1.97 dB   -16.44 dB      4:03 11-Motion
--------------------------------------------------------------------------------

Number of tracks:  11
Official DR value: DR11

Samplerate:        44100 Hz
Channels:          2
Bits per sample:   24
Bitrate:           1228 kbps
Codec:             FLAC
================================================================================
Any questions - support@pro-jazz.com. Есть вопросы - support@pro-jazz.com
13:28
182
Нет комментариев. Ваш будет первым!