Вы используете незарегистрированную версию компонента "Вкладки"!

Поиск

2015 Hayden Powell - Circadian Rhythm and Blues {Periskop PSK103} [24-88,2]

2015 Hayden Powell - Circadian Rhythm and Blues {Periskop PSK103} [24-88,2]
Стили:
Номер по каталогу:
PSK103
Носитель:
WEB
Тип рипа:
tracks+.cue
Битрейт аудио:
lossless
Время звучания:
01:16:42
Наличие сканов:
web
Страна-производитель диска (релиза):
Norway
Релизёр (источник):
M0p94ok
Лог проверки качества
foobar2000 1.3.16 / Dynamic Range Meter 1.1.1
log date: 2019-02-18 15:51:39

--------------------------------------------------------------------------------
Analyzed: Hayden Powell / Circadian Rhythm and Blues
--------------------------------------------------------------------------------

DR         Peak         RMS     Duration Track
--------------------------------------------------------------------------------
DR12      -0.53 dB   -15.82 dB      4:59 01-Reveille
DR10      -1.05 dB   -13.67 dB      6:13 02-Truffles
DR11      -0.53 dB   -15.57 dB      4:07 03-Cobalt
DR11      -0.53 dB   -14.49 dB      5:41 04-Homework
DR11      -0.53 dB   -14.70 dB      3:44 05-The Cat's Idea
DR10      -0.53 dB   -13.05 dB      5:07 06-Mascot
DR11      -0.53 dB   -14.09 dB      3:37 07-Guardian
DR9       -0.53 dB   -14.46 dB      4:59 08-Late Night Politics
DR12      -0.50 dB   -18.49 dB      3:14 09-Suddenly Alone
DR12      -1.34 dB   -19.47 dB      2:04 10-Pepper-Upper
DR12      -0.50 dB   -15.98 dB      2:54 11-Red Sky at Night
DR12      -0.50 dB   -16.30 dB      6:05 12-Continuum
DR19      -0.50 dB   -26.47 dB      1:36 13-Crosswind
DR17      -0.50 dB   -22.99 dB      3:44 14-Sleepless
DR12      -0.50 dB   -17.78 dB      2:53 15-Cantillation
DR11      -0.50 dB   -15.22 dB      3:33 16-Ville De Montréal
DR14      -0.50 dB   -20.98 dB      3:59 17-Water Song
DR11      -1.85 dB   -16.28 dB      3:09 18-Cat in a Box
DR10      -0.50 dB   -15.55 dB      5:16 19-Wakeup Call (Remix)
--------------------------------------------------------------------------------

Number of tracks:  19
Official DR value: DR12

Samplerate:        88200 Hz
Channels:          2
Bits per sample:   24
Bitrate:           2433 kbps
Codec:             FLAC
================================================================================
Any questions - support@pro-jazz.com. Есть вопросы - support@pro-jazz.com
12:58
229
Нет комментариев. Ваш будет первым!