Вы используете незарегистрированную версию компонента "Вкладки"!

Поиск

1960 John Coltrane - Giant Steps (2020 60th Anniversary Super Deluxe Edition) {Rhino, Atlantic} [24-192]

1960 John Coltrane - Giant Steps (2020 60th Anniversary Super Deluxe Edition) {Rhino, Atlantic} [24-192]
Стили:
Дата записи диска:
4-5 мая 1959, 2 декабря 1959
Дата издания диска:
27 января 1960
Издатель (лейбл):
Битрейт аудио:
lossless
Доп. инфо:

Tracks 8, 9, 10, and 14: Recorded on Thursday, March 26, 1959, Atlantic Studios, New York City.
Tracks 3 and 4, 11: Recorded on Monday, may 4, 1959, Atlantic Studios, New York City.
Tracks 1, 2, 5, and 7, 12, 13, and 15: Recorded on Tuesday, May 5, 1959, Atlantic Studios, New York City.
Track 6: Recorded on Wednesday, December 2, 1959, Atlantic Studios, New York City.

Формат записи/Источник записи: [TR24][OF]
Наличие водяных знаков: Нет
Год издания: 2020
Продолжительность: 02:06:32
Наличие сканов в содержимом раздачи: Только обложка альбома
Контейнер: FLAC (*.flac)
Тип рипа: tracks
Разрядность: 24/192
Формат: PCM
Количество каналов: 2.0
Источник (релизер): prestomusic.com

Лог проверки качества
foobar2000 1.4.8 / Dynamic Range Meter 1.1.1
log date: 2020-09-18 18:36:13

--------------------------------------------------------------------------------
Analyzed: John Coltrane / Giant Steps (60th Anniversary Super Deluxe Edition) (2020 Remaster)
--------------------------------------------------------------------------------

DR         Peak         RMS     Duration Track
--------------------------------------------------------------------------------
DR10      -1.26 dB   -12.66 dB      4:48 01-Giant Steps (2020 Remaster)
DR10      -1.29 dB   -13.83 dB      5:50 02-Cousin Mary (2020 Remaster)
DR10      -1.32 dB   -17.74 dB      2:26 03-Countdown (2020 Remaster)
DR9       -1.64 dB   -13.13 dB      6:00 04-Spiral (2020 Remaster)
DR10      -1.36 dB   -15.01 dB      7:06 05-Syeeda's Song Flute (2020 Remaster)
DR12      -1.46 dB   -18.29 dB      4:25 06-Naima (2020 Remaster)
DR9       -0.75 dB   -12.03 dB      6:57 07-Mr. P.C. (2020 Remaster)
DR10      -0.84 dB   -13.54 dB      4:40 08-Giant Steps (Alternate, Take 1, Incomplete) (2020 Remaster)
DR11      -3.10 dB   -19.40 dB      0:14 09-Giant Steps (Alternate, Take 2, False Start) (2020 Remaster)
DR10      -1.73 dB   -14.72 dB      2:43 10-Giant Steps (Alternate, Take 3, Incomplete) (2020 Remaster)
DR10      -2.38 dB   -14.64 dB      1:26 11-Giant Steps (Alternate, Take 4, Incomplete) (2020 Remaster)
DR10      -1.72 dB   -13.55 dB      3:39 12-Giant Steps (Alternate, Take 5) (2020 Remaster)
DR9       -2.45 dB   -16.76 dB      0:35 13-Giant Steps (Alternate, Take 6, False Start) (2020 Remaster)
DR10      -2.08 dB   -13.65 dB      4:02 14-Giant Steps (Alternate, Take 7, Incomplete) (2020 Remaster)
DR10      -2.26 dB   -13.65 dB      3:47 15-Giant Steps (Alternate, Take 8) (2020 Remaster)
DR10      -2.93 dB   -16.64 dB      3:32 16-Naima (Alternate, Take 1, False Start) (2020 Remaster)
DR10      -3.01 dB   -16.11 dB      3:18 17-Naima (Alternate, Take 2, Incomplete) (2020 Remaster)
DR11      -0.80 dB   -13.73 dB      4:36 18-Naima (Alternate, Take 3) (2020 Remaster)
DR9       -5.35 dB   -18.46 dB      0:18 19-Naima (Alternate, Take 4, False Start) (2020 Remaster)
DR11      -1.19 dB   -15.54 dB      3:40 20-Naima (Alternate, Take 5) (2020 Remaster)
DR11      -1.19 dB   -14.79 dB      3:35 21-Naima (Alternate, Take 6) (2020 Remaster)
DR10      -6.23 dB   -24.58 dB      0:25 22-Like Sonny (Rehearsal 1, False Start) (2020 Remaster)
DR11      -1.51 dB   -15.08 dB      1:24 23-Like Sonny (Rehearsal 2, Incomplete) (2020 Remaster)
DR12      -9.12 dB   -31.02 dB      0:24 24-Like Sonny (Alternate, Take 1, False Start) (2020 Remaster)
DR11      -1.38 dB   -14.86 dB      3:08 25-Like Sonny (Alternate, Take 2, Incomplete) (2020 Remaster)
DR11      -2.84 dB   -18.47 dB      1:10 26-Like Sonny (Alternate, Take 3, Incomplete) (2020 Remaster)
DR12      -5.56 dB   -23.70 dB      0:12 27-Like Sonny (Alternate, Take 4, False Start) (2020 Remaster)
DR11      -0.96 dB   -16.38 dB      8:23 28-Like Sonny (Alternate, Take 5) (2020 Remaster)
DR12      -4.82 dB   -20.25 dB      1:17 29-Like Sonny (Alternate, Take 6, Incomplete) (2020 Remaster)
DR11      -2.42 dB   -16.88 dB      6:26 30-Like Sonny (Alternate, Take 7) (2020 Remaster)
DR12      -0.82 dB   -16.03 dB      4:36 31-Countdown (Alternate Take) (2020 Remaster)
DR12      -0.80 dB   -16.50 dB      7:07 32-Syeeda's Song Flute (Alternate Take) (2020 Remaster)
DR13      -0.80 dB   -16.89 dB      5:45 33-Cousin Mary (Alternate Take) (2020 Remaster)
DR13      -0.80 dB   -15.84 dB      4:04 34-Giant Steps, Take 3 (Incomplete) (2020 Remaster)
DR12      -0.80 dB   -15.02 dB      4:57 35-Giant Steps (Take 6, Alternate) (2020 Remaster)
--------------------------------------------------------------------------------

Number of tracks:  35
Official DR value: DR11
Samplerate:        192000 Hz
Channels:          2
Bits per sample:   24
Bitrate:           5727 kbps
Codec:             FLAC
================================================================================
Any questions - support@pro-jazz.com. Есть вопросы - support@pro-jazz.com
00:18
266
Нет комментариев. Ваш будет первым!