Вы используете незарегистрированную версию компонента "Вкладки"!

Поиск

1980 Mel Lewis, The Jazz Orchestra & Bob Brookmeyer - Live At The Village Vanguard (2019) {Gryphon} [24-44,1]

1980 Mel Lewis, The Jazz Orchestra & Bob Brookmeyer - Live At The Village Vanguard (2019) {Gryphon} [24-44,1]
Стили:
Битрейт аудио:
lossless
Доп. инфо:

Формат записи/Источник записи: [TR24][OF]
Издание: Remastered
Год издания/переиздания диска: 1980/2019
Издатель (лейбл): Gryphon Records
Продолжительность: 00:49:24
Наличие сканов в содержимом раздачи: Нет

Контейнер: FLAC (*.flac)
Тип рипа: tracks
Разрядность: 24/44,1
Количество каналов: 2.0

Источник (релизер): HIGHRESAUDIO

Лог проверки качества
foobar2000 1.3.7 / Dynamic Range Meter 1.1.1
log date: 2019-02-20 03:22:39

--------------------------------------------------------------------------------
Analyzed: Mel Lewis, The Jazz Orchestra & Bob Brookmeyer / Live At The Village Vanguard (Remastered)
--------------------------------------------------------------------------------

DR         Peak         RMS     Duration Track
--------------------------------------------------------------------------------
DR11      -1.24 dB   -16.17 dB      7:24 01-Ding Dong Ding
DR13      -7.20 dB   -24.59 dB      5:26 02-First Love Song
DR13      -1.45 dB   -18.19 dB      7:48 03-Hello & Goodbye
DR13      -2.17 dB   -20.49 dB      7:00 04-Skylark
DR14      -1.17 dB   -19.04 dB     16:26 05-El Co
DR14      -1.20 dB   -19.12 dB      5:24 06-The Fan Club
--------------------------------------------------------------------------------

Number of tracks:  6
Official DR value: DR13

Samplerate:        44100 Hz
Channels:          2
Bits per sample:   24
Bitrate:           1606 kbps
Codec:             FLAC
================================================================================
Any questions - support@pro-jazz.com. Есть вопросы - support@pro-jazz.com
23:37
214
Нет комментариев. Ваш будет первым!