Вы используете незарегистрированную версию компонента "Вкладки"!

Поиск

1967 Sam Rivers - Contours (2019) {Blue Note} [24-96]

1967 Sam Rivers - Contours (2019) {Blue Note} [24-96]
Издатель (лейбл):
Битрейт аудио:
lossless
Доп. инфо:

Формат записи/Источник записи: [TR24][OF]
Наличие водяных знаков: Нет
Год издания/переиздания диска: 1967/2019
Продолжительность: 00:40:13
Наличие сканов в содержимом раздачи: Только обложка альбома

Контейнер: FLAC (*.flac)
Тип рипа: tracks
Разрядность: 24/96
Формат: PCM
Количество каналов: 2.0

Источник (релизер):
https://www.hdtracks.com/#/album/5df266ee0bee25c09bc1d824

Лог проверки качества
foobar2000 1.3.7 / Dynamic Range Meter 1.1.1
log date: 2019-04-05 00:00:41

--------------------------------------------------------------------------------
Analyzed: Sam Rivers / Contours
--------------------------------------------------------------------------------

DR         Peak         RMS     Duration Track
--------------------------------------------------------------------------------
DR13      -0.20 dB   -19.79 dB      9:21 01-Point Of Many Returns
DR15      -0.20 dB   -20.78 dB     10:10 02-Dance Of The Tripedal
DR13      -3.76 dB   -25.04 dB     11:44 03-Euterpe
DR16      -0.96 dB   -22.48 dB      8:58 04-Mellifluous Cacophony
--------------------------------------------------------------------------------

Number of tracks:  4
Official DR value: DR14

Samplerate:        96000 Hz
Channels:          2
Bits per sample:   24
Bitrate:           2690 kbps
Codec:             FLAC
================================================================================
Any questions - support@pro-jazz.com. Есть вопросы - support@pro-jazz.com
13:47
278
Нет комментариев. Ваш будет первым!