Вы используете незарегистрированную версию компонента "Вкладки"!

Поиск

1955 Hazel Scott ft. Max Roach and Charles Mingus - Relaxed Piano Moods (2019) {RevOla} [24-44,1]

1955 Hazel Scott ft. Max Roach and Charles Mingus - Relaxed Piano Moods (2019) {RevOla} [24-44,1]
Стили:
Издатель (лейбл):
Битрейт аудио:
lossless
Доп. инфо:

Формат записи/Источник записи: [TR24][OF]
Издание: Remastered
Год издания/переиздания диска: 1955/2019
Издатель (лейбл): RevOla
Продолжительность: 00:31:48
Наличие сканов в содержимом раздачи: Нет

Контейнер: FLAC (*.flac)
Тип рипа: tracks
Разрядность: 24/44,1
Количество каналов: 2.0

Источник (релизер): Qobuz

Лог проверки качества
foobar2000 1.4.3 / Dynamic Range Meter 1.1.1
log date: 2020-07-18 19:42:19

--------------------------------------------------------------------------------
Analyzed: Hazel Scott / Relaxed Piano Moods
--------------------------------------------------------------------------------

DR         Peak         RMS     Duration Track
--------------------------------------------------------------------------------
DR15      -5.41 dB   -25.34 dB      3:49 01, 01-Like Someone In Love (Remastered)
DR15      -6.60 dB   -25.80 dB      4:03 02, 02-Peace Of Mind (Remastered)
DR17      -5.07 dB   -25.05 dB      4:44 03, 03-Lament (Remastered)
DR14      -1.52 dB   -17.73 dB      3:58 04, 04-The Jeep Is Jumpin' (Remastered)
DR16      -1.14 dB   -19.41 dB      4:27 05, 05-Git Up From There (Remastered)
DR15      -1.88 dB   -18.60 dB      6:06 06, 06-A Foggy Day (Remastered)
DR13      -3.09 dB   -18.71 dB      4:46 07, 07-Mountain Greenery (Remastered)
--------------------------------------------------------------------------------

Number of tracks:  7
Official DR value: DR15

Samplerate:        44100 Hz
Channels:          2
Bits per sample:   24
Bitrate:           1267 kbps
Codec:             FLAC
================================================================================
Any questions - support@pro-jazz.com. Есть вопросы - support@pro-jazz.com
13:38
288
Нет комментариев. Ваш будет первым!