Вы используете незарегистрированную версию компонента "Вкладки"!

Поиск

2019 Aubrey Logan - Where the Sunshine Is Expensive {2xHD} [DSD256]

2019 Aubrey Logan - Where the Sunshine Is Expensive {2xHD} [DSD256]
Стили:
Издатель (лейбл):
Битрейт аудио:
lossless
Доп. инфо:

Формат записи/Источник записи: [DSD][OF]
Наличие водяных знаков: Да
Издание: 2xHD Fusion
Год издания/переиздания диска: 2019/202
Продолжительность: 00:49:43
Наличие сканов в содержимом раздачи: Буклет PDF

Контейнер: DSF (*.dsf)
Тип рипа: tracks
Разрядность: DSD256
Формат: DSD
Количество каналов: 2.0
Другие дорожки звука: DSD256 (11.2 MHz)

Источник (релизер): HDtracks

Лог проверки качества
foobar2000 1.5.4 / Dynamic Range Meter 1.1.1
log date: 2020-07-22 19:07:07

--------------------------------------------------------------------------------
Analyzed: Aubrey Logan / Aubrey Logan, Where the Sunshine Is Expensive [DSD·256 HDTracks 2020]
--------------------------------------------------------------------------------

DR         Peak         RMS     Duration Track
--------------------------------------------------------------------------------
DR8       -3.56 dB   -13.91 dB      1:44 01-Tom Bradley International Terminal
DR8       -3.42 dB   -13.40 dB      3:46 02-So Cute
DR8       -3.67 dB   -13.68 dB      6:18 03-Understand
DR9       -3.63 dB   -14.25 dB      4:04 04-Laundry (feat. Dave Koz)
DR8       -3.75 dB   -16.18 dB      4:08 05-L.A.
DR9       -3.96 dB   -15.46 dB      4:12 06-High Place
DR10      -4.19 dB   -18.03 dB      3:26 07-The Remembering Song
DR8       -3.59 dB   -13.95 dB      4:03 08-I Keep Forgettin' (Every Time You're Near)
DR8       -3.71 dB   -15.29 dB      6:03 09-Airport Codes
DR10      -3.49 dB   -17.12 dB      4:50 10-One Three Nine
DR9       -3.61 dB   -14.01 dB      3:22 11-Put It Where You Want It (feat. Dave Koz, Casey Abrams)
DR10      -5.05 dB   -18.67 dB      3:48 12-Alfie
--------------------------------------------------------------------------------

Number of tracks:  12
Official DR value: DR9

Samplerate:        11289600 Hz / PCM Samplerate: 176400 Hz
Channels:          2
Bits per sample:   1
Bitrate:           22579 kbps
Codec:             DSD256
================================================================================
Any questions - support@pro-jazz.com. Есть вопросы - support@pro-jazz.com
13:33
271
Нет комментариев. Ваш будет первым!