Вы используете незарегистрированную версию компонента "Вкладки"!

Поиск

2020 Jerry Cook Quartet+ - Walk in the Park {Cellar Live} [24-96]

2020 Jerry Cook Quartet+ - Walk in the Park {Cellar Live} [24-96]
Стили:
Битрейт аудио:
lossless
Доп. инфо:

Формат записи/Источник записи: [TR24][OF]
Наличие водяных знаков: Нет
Год издания/переиздания диска: 2020
Издатель (лейбл): Cellar Live
Продолжительность: 01:00:47
Наличие сканов в содержимом раздачи: Только обложка альбома

Контейнер: FLAC (*.flac)
Тип рипа: tracks
Разрядность: 24/96
Формат: PCM
Количество каналов: 2.0

Источник (релизер): highresaudio.com

Лог проверки качества
foobar2000 1.5.5 / Dynamic Range Meter 1.1.1
log date: 2020-07-27 18:40:04

--------------------------------------------------------------------------------
Analyzed: Jerry Cook Quartet + / Walk in the Park
--------------------------------------------------------------------------------

DR         Peak         RMS     Duration Track
--------------------------------------------------------------------------------
DR13      -0.70 dB   -15.39 dB      5:35 01-Walk in the Park
DR11      -0.70 dB   -13.20 dB      5:44 02-Lazy Days
DR12      -0.71 dB   -14.44 dB      4:34 03-Smile
DR12      -0.70 dB   -16.25 dB      6:50 04-Soul Eyes
DR11      -0.70 dB   -14.46 dB      6:39 05-Hello My Lovely
DR12      -0.70 dB   -15.93 dB      6:08 06-Scarlet Ribbons
DR11      -0.70 dB   -14.04 dB      5:50 07-Summertime
DR11      -0.70 dB   -13.56 dB      6:29 08-Cook's Blues
DR12      -0.70 dB   -16.12 dB      6:08 09-Georgia on My Mind
DR10      -0.70 dB   -13.69 dB      6:50 10-Nature's Lament
--------------------------------------------------------------------------------

Number of tracks:  10
Official DR value: DR11

Samplerate:        96000 Hz
Channels:          2
Bits per sample:   24
Bitrate:           2783 kbps
Codec:             FLAC
================================================================================
Any questions - support@pro-jazz.com. Есть вопросы - support@pro-jazz.com
10:06
225
Нет комментариев. Ваш будет первым!