Вы используете незарегистрированную версию компонента "Вкладки"!

Поиск

1979 Art Farmer with Joe Henderson - Yama (2017) {King} [24-192]

1979 Art Farmer with Joe Henderson - Yama (2017) {King} [24-192]
Стили:
Издатель (лейбл):
Доп. инфо:

Формат записи/Источник записи: [TR24][OF]
Издание: Remastered
Год издания/переиздания диска: 1979/2017
Издатель (лейбл): King Record Co
Продолжительность: 00:33:12
Наличие сканов в содержимом раздачи: Нет

Контейнер: FLAC (*.flac)
Тип рипа: tracks
Разрядность: 24/192
Количество каналов: 2.0

Источник (релизер): King Jazz & Classics

Лог проверки качества
foobar2000 1.4.3 / Dynamic Range Meter 1.1.1
log date: 2020-02-01 09:39:19

--------------------------------------------------------------------------------
Analyzed: Art Farmer with Joe Henderson / Yama
--------------------------------------------------------------------------------

DR         Peak         RMS     Duration Track
--------------------------------------------------------------------------------
DR10      -0.05 dB   -12.22 dB      4:14 01-Dulzura
DR13      -0.05 dB   -16.32 dB      6:49 02-Stop (Think Again)
DR10      -0.05 dB   -12.22 dB      6:47 03-Young and Fine
DR12      -0.05 dB   -16.30 dB      8:26 04-Lotus Blossom
DR12      -0.05 dB   -14.10 dB      6:59 05-Blue Montreux
--------------------------------------------------------------------------------

Number of tracks:  5
Official DR value: DR12

Samplerate:        192000 Hz
Channels:          2
Bits per sample:   24
Bitrate:           4811 kbps
Codec:             FLAC
===============================================================================
Any questions - support@pro-jazz.com. Есть вопросы - support@pro-jazz.com
18:34
299
Нет комментариев. Ваш будет первым!