Вы используете незарегистрированную версию компонента "Вкладки"!

Поиск

1954 Louis Armstrong - Louis Armstrong & His All Stars (2018) {2xHD} [DSD128]

1954 Louis Armstrong - Louis Armstrong & His All Stars (2018) {2xHD} [DSD128]
Издатель (лейбл):
Доп. инфо:

Формат записи/Источник записи: [DSD][OF]
Наличие водяных знаков: Нет
Год издания/переиздания диска: 1954/2018
Продолжительность: 00:40:07
Наличие сканов в содержимом раздачи: Буклет PDF

Контейнер: DSF (*.dsf)
Тип рипа: tracks
Разрядность: 128(5,6 MHz/1 Bit)
Формат: DSD
Количество каналов: 2.0

Источник (релизер): https://www.highresaudio.com/en/album/view/xhajtx/louis-armstrong-louis-armstrong...stars-remastered

Лог проверки качества
foobar2000 1.4.8 / Dynamic Range Meter 1.1.1
log date: 2019-10-22 17:40:34

--------------------------------------------------------------------------------
Analyzed: Louis Armstrong / Louis Armstrong & His All Stars
--------------------------------------------------------------------------------

DR         Peak         RMS     Duration Track
--------------------------------------------------------------------------------
DR13      -6.25 dB   -22.81 dB      3:16 01-Shadrack
DR14      -6.42 dB   -22.71 dB      3:02 02-When The Saints Go Marching In
DR14      -7.97 dB   -24.82 dB      4:42 03-West End Blues
DR13      -6.66 dB   -22.40 dB      2:48 04-Dummy Song
DR14      -6.82 dB   -24.45 dB      5:08 05-Tin Roof Blues
DR14      -6.71 dB   -23.03 dB      2:38 06-My Bucket's Got A Hole In It
DR12      -7.13 dB   -21.29 dB      4:06 07-Indiana (Back Home Again In Indiana)
DR12      -6.88 dB   -21.36 dB      3:40 08-Big Butter And Egg Man
DR14      -6.88 dB   -25.35 dB      5:36 09-Back O'Town Blues
DR15      -6.84 dB   -23.86 dB      2:51 10-When It's Sleepy Time Down South
DR13      -6.39 dB   -22.21 dB      2:20 11-High Society
--------------------------------------------------------------------------------

Number of tracks:  11
Official DR value: DR13

Samplerate:        5644800 Hz / PCM Samplerate: 176400 Hz
Channels:          2
Bits per sample:   1
Bitrate:           11290 kbps
Codec:             DSD128
================================================================================
Any questions - support@pro-jazz.com. Есть вопросы - support@pro-jazz.com
21:26
299
Нет комментариев. Ваш будет первым!